2036 Origin Unknown 2018 1080p WEB-DL DD 5.1 x264 [MW]

seeders: 12     leechers: 1     updated: 2 hours ago
Uploaded by MovieFreak8206 , was 1 week ago, day 10/06/2018 18:08:42
Downloaded 17 times, 2.21 GB - 1 file , filmes > WebDL


Warning! Use a VPN When Downloading Torrents.


Your IP Address is 54.81.112.7 Location is US.
Hide your IP ADDRESS with a VPN!

Get VPN App Mac Now!


    2036 Origin Unknown 2018 1080p WEB-DL DD 5.1 x264 [MW] ( 2.21 GB )
    2036 Origin Unknown 2018 1080p WEB-DL DD 5.1 x264 [MW].mkv2.21 GB

    By the way you can play this film on Mac with Elmedia Player





    General
    Format                                   : Matroska
    Format version                           : Version 4 / Version 2
    File size                                : 2.21 GiB
    Duration                                 : 1 h 34 min
    Overall bit rate                         : 3 347 kb/s

    Video
    ID                                       : 1
    Format                                   : AVC
    Format/Info                              : Advanced Video Codec
    Format profile                           : [email protected]
    Format settings                          : CABAC / 4 Ref Frames
    Format settings, CABAC                   : Yes
    Format settings, RefFrames               : 4 frames
    Codec ID                                 : V_MPEG4/ISO/AVC
    Duration                                 : 1 h 34 min
    Bit rate                                 : 3 000 kb/s
    Width                                    : 1 904 pixels
    Height                                   : 804 pixels
    Display aspect ratio                     : 2.35:1
    Frame rate mode                          : Constant
    Frame rate                               : 24.000 FPS
    Color space                              : YUV
    Chroma subsampling                       : 4:2:0
    Bit depth                                : 8 bits
    Scan type                                : Progressive
    Bits/(Pixel*Frame)                       : 0.082
    Stream size                              : 1.96 GiB (88%)
    Writing library                          : x264 core 155 r2901 7d0ff22
    Default                                  : Yes
    Forced                                   : No

    Audio
    ID                                       : 2
    Format                                   : AC-3
    Format/Info                              : Audio Coding 3
    Codec ID                                 : A_AC3
    Duration                                 : 1 h 34 min
    Bit rate mode                            : Constant
    Bit rate                                 : 384 kb/s
    Channel(s)                               : 6 channels
    Channel positions                        : Front: L C R, Side: L R, LFE
    Sampling rate                            : 48.0 kHz
    Frame rate                               : 31.250 FPS (1536 SPF)
    Bit depth                                : 16 bits
    Compression mode                         : Lossy
    Stream size                              : 260 MiB (11%)
    Language                                 : English
    Service kind                             : Complete Main
    Default                                  : Yes
    Forced                                   : No

    Menu
    00:00:00.000                             : en:Chapter 1
    00:10:41.641                             : en:Chapter 2
    00:20:09.208                             : en:Chapter 3
    00:31:32.891                             : en:Chapter 4
    00:40:20.418                             : en:Chapter 5
    00:49:58.996                             : en:Chapter 6
    01:01:16.673                             : en:Chapter 7
    01:11:01.257                             : en:Chapter 8
    01:20:10.806                             : en:Chapter 9
    01:32:15.530                             : en:Chapter 10





    https://pichub.site/image/MZk3Z
    https://pichub.site/image/MZcGD
    https://pichub.site/image/MZVdN
    https://pichub.site/image/MZdFT
    https://pichub.site/image/MZRqb





    SIMILAR

    TORRENT   UPLOADEDSIZESEEDS LEECHS
    [email protected] by felipewinchester 1 day 4.11 GB0 0
    2036.Origin.Unknown.2018.AMZN.WEB-DL.AAC2.0.H.264-NTG by Supernova 1 week 829.48 MB1 4
    2036 Origin Unknown (2018) 720p BrRip x264 - YIFY by YIFY 2 weeks 805.24 MB1 196 378
    2036 Origin Unknown (2018) 1080p BrRip x264 - YIFY by YIFY 2 weeks 1.51 GB818 165
    2036.Origin.Unknown.2018.720p.WEB-DL.DD5 1.H264.LLG by LifeLongg 1 week 997.82 MB12 9
    2036.Origin.Unknown.2018.HDRip.XviD.AC3.LLG by LifeLongg 2 weeks 1.02 GB1 0
    Mika - The Origin Of Love [Flac][TntVillage] by leonenero 5 months 337.65 MB5 0

    Torrent Hash: 565E8FFC088812A13C4C3A7CFE87B7D3568B5B3F


    Num Trackers: 12 trackers




    TRACKER'S LIST COMPATIBLE WITH BITTORRENT CLIENT


    TrackerSeedersLeechersCompletedUpdated
    udp://tracker.leechers-paradise.org:6969 12 1 0 1 week
    udp://tracker.opentrackr.org:1337 10 7 0 1 week
    udp://tracker.coppersurfer.tk:6969 6 2 0 1 week
    http://public.popcorn-tracker.org:6969/announce 3 3 0 2 hours
    http://191.96.249.23:6969/announce 3 3 0 2 hours
    http://tracker.mg64.net:6881/announce 2 0 0 1 week
    udp://thetracker.org:80/announce 1 0 0 2 hours
    http://bt.xxx-tracker.com:2710/announce 1 0 0 2 hours
    http://mgtracker.org:2710/announce 1 0 0 1 week
    http://retracker.spb.ru/announce 0 0 0 1 week
    http://announce.xxx-tracker.com:2710/announce 0 0 0 1 week
    http://open.acgtracker.com:1096/announce 0 0 0 1 week

    No comments yet.