211 2018 1080p WEB-DL DD 5.1 x264 [MW]

seeders: 6     leechers: 0     updated: 1 day ago
Uploaded by MovieFreak8051 , was 1 week ago, day 10/06/2018 15:36:42
Downloaded 16 times, 2.01 GB - 1 file , filmes > WebDL


Warning! Use a VPN When Downloading Torrents.


Your IP Address is 54.81.105.205 Location is US.
Hide your IP ADDRESS with a VPN!

Get VPN App Mac Now!


    211 2018 1080p WEB-DL DD 5.1 x264 [MW] ( 2.01 GB )
    211 2018 1080p WEB-DL DD 5.1 x264 [MW].mkv2.01 GB

    By the way you can play this film on Mac with Elmedia Player





    General
    Format                                   : Matroska
    Format version                           : Version 4 / Version 2
    File size                                : 2.01 GiB
    Duration                                 : 1 h 34 min
    Overall bit rate                         : 3 047 kb/s

    Video
    ID                                       : 1
    Format                                   : AVC
    Format/Info                              : Advanced Video Codec
    Format profile                           : [email protected]
    Format settings                          : CABAC / 4 Ref Frames
    Format settings, CABAC                   : Yes
    Format settings, RefFrames               : 4 frames
    Codec ID                                 : V_MPEG4/ISO/AVC
    Duration                                 : 1 h 27 min
    Bit rate                                 : 3 000 kb/s
    Width                                    : 1 920 pixels
    Height                                   : 1 036 pixels
    Display aspect ratio                     : 1.85:1
    Frame rate mode                          : Constant
    Frame rate                               : 23.976 (24000/1001) FPS
    Color space                              : YUV
    Chroma subsampling                       : 4:2:0
    Bit depth                                : 8 bits
    Scan type                                : Progressive
    Bits/(Pixel*Frame)                       : 0.063
    Stream size                              : 1.76 GiB (87%)
    Writing library                          : x264 core 155 r2901 7d0ff22
    Default                                  : Yes
    Forced                                   : No

    Audio
    ID                                       : 2
    Format                                   : AC-3
    Format/Info                              : Audio Coding 3
    Codec ID                                 : A_AC3
    Duration                                 : 1 h 34 min
    Bit rate mode                            : Constant
    Bit rate                                 : 384 kb/s
    Channel(s)                               : 6 channels
    Channel positions                        : Front: L C R, Side: L R, LFE
    Sampling rate                            : 48.0 kHz
    Frame rate                               : 31.250 FPS (1536 SPF)
    Bit depth                                : 16 bits
    Compression mode                         : Lossy
    Stream size                              : 260 MiB (13%)
    Language                                 : English
    Service kind                             : Complete Main
    Default                                  : Yes
    Forced                                   : No

    Menu
    00:00:00.000                             : en:Chapter 1
    00:10:41.641                             : en:Chapter 2
    00:20:09.208                             : en:Chapter 3
    00:31:32.891                             : en:Chapter 4
    00:40:20.418                             : en:Chapter 5
    00:49:58.996                             : en:Chapter 6
    01:01:16.673                             : en:Chapter 7
    01:11:01.257                             : en:Chapter 8
    01:20:10.806                             : en:Chapter 9
    01:32:15.530                             : en:Chapter 10






    https://pichub.site/image/M3qFB
    https://pichub.site/image/MZJu6
    https://pichub.site/image/MZfdY
    https://pichub.site/image/MZaI4
    https://pichub.site/image/MZM3t





    SIMILAR

    TORRENT   UPLOADEDSIZESEEDS LEECHS
    Honor.Up.2018.1080p.BluRay.x264-SADPANDA[EtHD] by EtHD 1 month 6.59 GB4 2
    VA - Now 2018 Vol.1 (2018) Mp3 (320kbps) [Hunter] by kajalsus 1 month 163.60 MB62 7
    Her - Her (2018) Mp3 (320kbps) [Hunter] by kajalsus 2 months 123.60 MB12 3
    Natural Beauties (Roy Alexandre, Adam & Eve, Colmax) by NoMercy 1 month 2.32 GB17 10
    The.Mercy.2018.1080p.BluRay.X264-AMIABLE[EtHD] by EtHD 2 weeks 8.05 GB13 14
    Pink - Essentials (2018) Mp3 (320kbps) [Hunter] by kajalsus 4 months 170.24 MB107 9
    Just Dance 2018_RGH by ricmessi 8 months 7.27 GB4 2

    Torrent Hash: A249EFDA7720F8C0BD0DC2D6B56FD860C68F238E


    Num Trackers: 4 trackers




    TRACKER'S LIST COMPATIBLE WITH BITTORRENT CLIENT


    TrackerSeedersLeechersCompletedUpdated
    http://public.popcorn-tracker.org:6969/announce 6 0 0 1 day
    http://191.96.249.23:6969/announce 6 0 0 1 day
    udp://thetracker.org:80/announce 1 0 0 1 day
    http://bt.xxx-tracker.com:2710/announce 1 0 0 1 day

    No comments yet.