Alterscape (2018) 720p HDRip x264 AAC by Full4movies

seeders: 4     leechers: 3     updated: 1 week ago

Downloading Seeding from 0 peers
of -
0 b/s / 0 b/s

Warning! Use a VPN When Downloading Torrents.


Your IP Address is 54.166.130.157 Location is US.
Hide your IP ADDRESS with a VPN!

Get VPN App Mac Now!


    Alterscape (2018) 720p HDRip x264 AAC by Full4movies ( 751.50 MB )
    Alterscape (2018) 720p HDRip x264 AAC by Full4movies.mkv751.50 MB

    By the way you can play this film on Mac with Elmedia Player



    General
    Complete name                  : Alterscape (2018) 720p HDRip x264 AAC by Full4movies.mkv
    Format                         : Matroska
    Format version                 : Version 4 / Version 2
    File size                      : 751 MiB
    Duration                       : 1 h 32 min
    Overall bit rate               : 1 134 kb/s
    Movie name                     : www.Full4movies.co
    Encoded date                   : UTC 2018-10-04 16:19:51
    Writing application            : mkvmerge v8.1.0 ('Psychedelic Postcard') 32bit
    Writing library                : libebml v1.3.1 + libmatroska v1.4.2

    Video
    ID                             : 1
    Format                         : AVC
    Format/Info                    : Advanced Video Codec
    Format profile                 : [email protected]
    Format settings, CABAC         : Yes
    Format settings, RefFrames     : 5 frames
    Codec ID                       : V_MPEG4/ISO/AVC
    Duration                       : 1 h 32 min
    Bit rate                       : 1 070 kb/s
    Width                          : 1 280 pixels
    Height                         : 674 pixels
    Display aspect ratio           : 1.899
    Frame rate mode                : Constant
    Frame rate                     : 23.976 (24000/1001) FPS
    Color space                    : YUV
    Chroma subsampling             : 4:2:0
    Bit depth                      : 8 bits
    Scan type                      : Progressive
    Bits/(Pixel*Frame)             : 0.052
    Stream size                    : 709 MiB (94%)
    Writing library                : x264 core 155 r2901 7d0ff22
    Default                        : Yes
    Forced                         : No
    Color range                    : Limited
    Color primaries                : BT.709
    Transfer characteristics       : BT.709
    Matrix coefficients            : BT.709

    Audio
    ID                             : 2
    Format                         : AAC
    Format/Info                    : Advanced Audio Codec
    Format profile                 : LC
    Codec ID                       : A_AAC
    Duration                       : 1 h 32 min
    Bit rate                       : 62.5 kb/s
    Channel(s)                     : 2 channels
    Channel positions              : Front: L R
    Sampling rate                  : 48.0 kHz
    Frame rate                     : 46.875 FPS (1024 SPF)
    Compression mode               : Lossy
    Delay relative to video        : -230 ms
    Stream size                    : 41.4 MiB (6%)
    Language                       : English
    Default                        : Yes
    Forced                         : No

    Screen Shoots




    SIMILAR

    TORRENT   UPLOADEDSIZESEEDS LEECHS
    Alterscape.2018.HDRip.XviD.AC3-EVO by xxxlavalxxx 1 week 1.35 GB74 18
    18+ Alterscape 2018 UNCENSORED Movies 720p HDRip x264 5.1 +Sampl by basicssom 1 week 999.00 MB6 8
    18+ Alterscape 2018 UNCENSORED Movies 720p HDRip x264 AAC +Sampl by basicssom 1 week 784.82 MB5 6
    Alterscape 2018 720p WEB-DL AAC 2.0 x264 [MW] by MovieFreak 1 week 872.18 MB46 39
    18+.Alterscape.2018.HDRip.XviD.AC3.With.Sample.LLG by LifeLongg 1 week 987.32 MB3 1

    Torrent Hash: 83F1C8920E2F6C5AFABEE40D54B50C7309B845FF


    Num Trackers: 5 trackers




    TRACKER'S LIST COMPATIBLE WITH BITTORRENT CLIENT


    TrackerSeedersLeechersCompletedUpdated
    udp://tracker.coppersurfer.tk:6969 4 3 0 1 week
    http://announce.xxx-tracker.com:2710/announce 0 2 0 1 week
    http://tracker.mg64.net:6881/announce 0 0 0 1 week
    http://mgtracker.org:2710/announce 0 0 0 1 week
    http://explodie.org:6969/announce 0 0 0 1 week

    No comments yet.