Alterscape 2018 720p WEB-DL AAC 2.0 x264 [MW]

seeders: 46     leechers: 39     updated: 2 days ago

Downloading Seeding from 0 peers
of -
0 b/s / 0 b/s

Warning! Use a VPN When Downloading Torrents.


Your IP Address is 54.166.130.157 Location is US.
Hide your IP ADDRESS with a VPN!

Get VPN App Mac Now!


    Alterscape 2018 720p WEB-DL AAC 2.0 x264 [MW] ( 872.18 MB )
    Alterscape 2018 720p WEB-DL AAC 2.0 x264 [MW].mkv872.18 MB

    By the way you can play this film on Mac with Elmedia Player





    General
    Format                                   : Matroska
    Format version                           : Version 4 / Version 2
    File size                                : 872 MiB
    Duration                                 : 1 h 32 min
    Overall bit rate                         : 1 317 kb/s

    Video
    ID                                       : 1
    Format                                   : AVC
    Format/Info                              : Advanced Video Codec
    Format profile                           : [email protected]
    Format settings                          : CABAC / 4 Ref Frames
    Format settings, CABAC                   : Yes
    Format settings, RefFrames               : 4 frames
    Codec ID                                 : V_MPEG4/ISO/AVC
    Duration                                 : 1 h 32 min
    Bit rate                                 : 1 200 kb/s
    Width                                    : 1 280 pixels
    Height                                   : 674 pixels
    Display aspect ratio                     : 1.899
    Frame rate mode                          : Constant
    Frame rate                               : 23.976 (24000/1001) FPS
    Color space                              : YUV
    Chroma subsampling                       : 4:2:0
    Bit depth                                : 8 bits
    Scan type                                : Progressive
    Bits/(Pixel*Frame)                       : 0.058
    Stream size                              : 786 MiB (90%)
    Writing library                          : x264 core 155 r2901 7d0ff22
    Default                                  : Yes
    Forced                                   : No

    Audio
    ID                                       : 2
    Format                                   : AAC
    Format/Info                              : Advanced Audio Codec
    Format profile                           : LC
    Codec ID                                 : A_AAC-2
    Duration                                 : 1 h 32 min
    Bit rate                                 : 128 kb/s
    Channel(s)                               : 2 channels
    Channel positions                        : Front: L R
    Sampling rate                            : 48.0 kHz
    Frame rate                               : 46.875 FPS (1024 SPF)
    Compression mode                         : Lossy
    Stream size                              : 85.0 MiB (10%)
    Language                                 : English
    Default                                  : Yes
    Forced                                   : No


    https://pichub.site/image/d4i9h
    https://pichub.site/image/d48Kr
    https://pichub.site/image/d4AXk
    https://pichub.site/image/d4KJQ
    https://pichub.site/image/d4mpd
    https://pichub.site/image/d4giv




    SIMILAR

    TORRENT   UPLOADEDSIZESEEDS LEECHS
    Alterscape.2018.HDRip.XviD.AC3-EVO by xxxlavalxxx 1 week 1.35 GB74 18
    18+ Alterscape 2018 UNCENSORED Movies 720p HDRip x264 5.1 +Sampl by basicssom 1 week 999.00 MB6 8
    18+ Alterscape 2018 UNCENSORED Movies 720p HDRip x264 AAC +Sampl by basicssom 1 week 784.82 MB5 6
    Alterscape (2018) 720p HDRip x264 AAC by Full4movies by mimranjamil 1 week 751.50 MB4 3
    18+.Alterscape.2018.HDRip.XviD.AC3.With.Sample.LLG by LifeLongg 1 week 987.32 MB3 1
    VA - Now 2018 Vol.1 (2018) Mp3 (320kbps) [Hunter] by kajalsus 5 months 163.60 MB62 7
    Her - Her (2018) Mp3 (320kbps) [Hunter] by kajalsus 7 months 123.60 MB12 3

    Torrent Hash: FA18794FA5EB30391767E328B22C09752C6EE9AF


    Num Trackers: 6 trackers




    TRACKER'S LIST COMPATIBLE WITH BITTORRENT CLIENT


    TrackerSeedersLeechersCompletedUpdated
    udp://tracker.coppersurfer.tk:6969 46 39 0 2 days
    http://explodie.org:6969/announce 27 26 0 2 days
    http://announce.xxx-tracker.com:2710/announce 16 4 0 2 days
    http://tracker.mg64.net:6881/announce 10 1 0 2 days
    http://mgtracker.org:2710/announce 6 1 0 2 days
    http://tracker1.itzmx.com:8080/announce 0 1 0 2 days

    No comments yet.