Always Be My Maybe 2019 720p WEB-DL x264 Dual Audio [Hindi DD 5.1 - English 2.0] ESub [MW]

seeders: 18     leechers: 5     updated: 4 months ago

Downloading Seeding from 0 peers
of -
0 b/s / 0 b/s

Warning! Use a VPN When Downloading Torrents.


Your IP Address is 3.228.21.186 Location is US.
Hide your IP ADDRESS with a VPN!

Get VPN App Mac Now!


    Always Be My Maybe 2019 720p WEB-DL x264 Dual Audio [Hindi DD 5.1 - English 2.0] ESub [MW] ( 991.38 MB )
    Always Be My Maybe 2019 720p WEB-DL x264 Dual Audio [Hindi DD 5.1 - English 2.0] ESub [MW].mkv991.38 MB

    By the way you can play this film on Mac with Elmedia Player





    General
    Format                                   : Matroska
    Format version                           : Version 4
    File size                                : 991 MiB
    Duration                                 : 1 h 42 min
    Overall bit rate                         : 1 354 kb/s

    Video
    ID                                       : 1
    Format                                   : AVC
    Format/Info                              : Advanced Video Codec
    Format profile                           : [email protected]
    Format settings                          : CABAC / 4 Ref Frames
    Format settings, CABAC                   : Yes
    Format settings, Reference frames        : 4 frames
    Codec ID                                 : V_MPEG4/ISO/AVC
    Duration                                 : 1 h 42 min
    Bit rate                                 : 1 000 kb/s
    Width                                    : 1 280 pixels
    Height                                   : 640 pixels
    Display aspect ratio                     : 2.000
    Frame rate mode                          : Constant
    Frame rate                               : 24.000 FPS
    Color space                              : YUV
    Chroma subsampling                       : 4:2:0
    Bit depth                                : 8 bits
    Scan type                                : Progressive
    Bits/(Pixel*Frame)                       : 0.051
    Stream size                              : 732 MiB (74%)
    Writing library                          : x264 core 157 r2935 545de2f

    Audio #1
    ID                                       : 2
    Format                                   : AC-3
    Format/Info                              : Audio Coding 3
    Commercial name                          : Dolby Digital
    Codec ID                                 : A_AC3
    Duration                                 : 1 h 42 min
    Bit rate mode                            : Constant
    Bit rate                                 : 224 kb/s
    Channel(s)                               : 6 channels
    Channel layout                           : L R C LFE Ls Rs
    Sampling rate                            : 48.0 kHz
    Frame rate                               : 31.250 FPS (1536 SPF)
    Bit depth                                : 16 bits
    Compression mode                         : Lossy
    Stream size                              : 164 MiB (17%)
    Language                                 : Hindi
    Service kind                             : Complete Main

    Audio #2
    ID                                       : 3
    Format                                   : AAC LC
    Codec ID                                 : A_AAC-2
    Duration                                 : 1 h 42 min
    Bit rate                                 : 128 kb/s
    Channel(s)                               : 2 channels
    Channel layout                           : L R
    Sampling rate                            : 48.0 kHz
    Frame rate                               : 46.875 FPS (1024 SPF)
    Compression mode                         : Lossy
    Stream size                              : 93.7 MiB (9%)
    Language                                 : English

    Text
    ID                                       : 4
    Format                                   : UTF-8
    Codec ID                                 : S_TEXT/UTF8
    Codec ID/Info                            : UTF-8 Plain Text
    Duration                                 : 1 h 40 min
    Bit rate                                 : 109 b/s
    Count of elements                        : 2094
    Stream size                              : 80.5 KiB (0%)
    Language                                 : English
    Default                                  : Yes
    Forced                                   : Yes


    Click To View Image

    https://pichub.site/image/yx8xX
    https://pichub.site/image/yxKEJ
    https://pichub.site/image/yxgm5
    https://pichub.site/image/yxmsh
    https://pichub.site/image/yxGYj
    https://pichub.site/image/yxNzr




    Torrent Hash: F906B31923E2027A680EF8162B8D84E86B84A791


    Num Trackers: 7 trackers




    TRACKER'S LIST COMPATIBLE WITH BITTORRENT CLIENT


    TrackerSeedersLeechersCompletedUpdated
    http://announce.xxx-tracker.com:2710/announce 3 0 0 4 months
    udp://thetracker.org:80/announce 2 2 0 4 months
    udp://tracker.pirateparty.gr:6969/announce 13 14 0 4 months
    http://explodie.org:6969/announce 13 4 0 4 months
    http://tracker1.itzmx.com:8080/announce 10 5 0 4 months
    http://open.acgtracker.com:1096/announce 1 1 0 4 months
    udp://tracker.coppersurfer.tk:6969 18 5 0 4 months

    No comments yet.