Angrezi Mein Kehte Hain (2018) HDRip x264 AAC by Full4movies

seeders: 1     leechers: 0     updated: 22 hours ago
Uploaded by mimranjamil2948 , was 1 week ago, day 12/07/2018 15:32:35
Downloaded 8 times, 448.79 MB - 1 file , filmes > BDRip


Warning! Use a VPN When Downloading Torrents.


Your IP Address is 54.162.128.159 Location is US.
Hide your IP ADDRESS with a VPN!

Get VPN App Mac Now!


    Angrezi Mein Kehte Hain (2018) HDRip x264 AAC by Full4movies ( 448.79 MB )
    Angrezi Mein Kehte Hain (2018) HDRip x264 AAC by Full4movies.mkv448.79 MB

    By the way you can play this film on Mac with Elmedia Player



    General
    Complete name                  : Angrezi Mein Kehte Hain (2018) HDRip x264 AAC by Full4movies.mkv
    Format                         : Matroska
    Format version                 : Version 4 / Version 2
    File size                      : 449 MiB
    Duration                       : 1 h 48 min
    Overall bit rate               : 580 kb/s
    Movie name                     : www.Full4movies.co
    Encoded date                   : UTC 2018-07-12 08:46:09
    Writing application            : mkvmerge v8.1.0 ('Psychedelic Postcard') 32bit
    Writing library                : libebml v1.3.1 + libmatroska v1.4.2

    Video
    ID                             : 1
    Format                         : AVC
    Format/Info                    : Advanced Video Codec
    Format profile                 : [email protected]
    Format settings, CABAC         : Yes
    Format settings, RefFrames     : 5 frames
    Codec ID                       : V_MPEG4/ISO/AVC
    Duration                       : 1 h 48 min
    Bit rate                       : 512 kb/s
    Width                          : 720 pixels
    Height                         : 304 pixels
    Display aspect ratio           : 2.35:1
    Frame rate mode                : Constant
    Frame rate                     : 23.976 (23976/1000) FPS
    Color space                    : YUV
    Chroma subsampling             : 4:2:0
    Bit depth                      : 8 bits
    Scan type                      : Progressive
    Bits/(Pixel*Frame)             : 0.098
    Stream size                    : 397 MiB (89%)
    Writing library                : x264 core 148 r2643 5c65704
    Default                        : Yes
    Forced                         : No

    Audio
    ID                             : 2
    Format                         : AAC
    Format/Info                    : Advanced Audio Codec
    Format profile                 : LC
    Codec ID                       : A_AAC
    Duration                       : 1 h 48 min
    Bit rate                       : 64.2 kb/s
    Channel(s)                     : 2 channels
    Channel positions              : Front: L R
    Sampling rate                  : 48.0 kHz
    Frame rate                     : 46.875 FPS (1024 SPF)
    Compression mode               : Lossy
    Stream size                    : 49.7 MiB (11%)
    Language                       : Hindi
    Default                        : Yes
    Forced                         : No

    Screen Shooter




    SIMILAR

    TORRENT   UPLOADEDSIZESEEDS LEECHS
    Angrezi.Mein.Kehte.Hain.(2018).1-3.Desi.Pre.Rip - x264 AC3 - DTO by SaM 2 months 1.38 GB12 7
    Angrezi Mein Kehte Hain (2018) HIndi Pre-DVDRip x264 AAC by Full4movies.mkv by mimranjamil 2 months 444.21 MB1 1
    Angrezi Mein Kehte Hain.2018.1080p.WEB.HDRip.x264.AC3.ESUB.DTOne by SaM 6 days 1.99 GB34 21
    Angrezi Mein Kehte Hain 2018 Hindi Movies PDVDRip x264 Clean Aud by basicssom 2 months 705.80 MB0 1
    Angrezi Mein Kehte Hain (2018) UntoucheD Desi pre DvD - DTone by SaM 2 months 1.71 GB1 0
    Shaadi Mein Zaroor Aana (2017) Hindi (Mp3 320kbps) [Hunter] by kajalsus 9 months 104.05 MB18 4
    Laali Ki Shaadi Mein Laddoo Deewana (2017) Hindi [Mp3~320kbps] by kajalsus 1 year 70.95 MB12 2

    Torrent Hash: 764CC1B7E1AD1BA4CACC1A7C0A07B9D91A25FEAB


    Num Trackers: 1 trackers




    TRACKER'S LIST COMPATIBLE WITH BITTORRENT CLIENT


    TrackerSeedersLeechersCompletedUpdated
    udp://thetracker.org:80/announce 1 0 0 22 hours

    No comments yet.