Ant-Man and the Wasp 2018 1080p HDTC x264 Dual Audio [Hindi - English] [MW]

seeders: 874     leechers: 260     updated: 1 year ago

Downloading Seeding from 0 peers
of -
0 b/s / 0 b/s

Warning! Use a VPN When Downloading Torrents.


Your IP Address is 34.204.191.31 Location is US.
Hide your IP ADDRESS with a VPN!

Get VPN App Mac Now!


    Ant-Man and the Wasp 2018 1080p HDTC x264 Dual Audio [Hindi - English] [MW] ( 1.69 GB )
    Ant-Man and the Wasp 2018 1080p HDTC Dual Audio [Hindi - English] [MW].mkv1.69 GB

    By the way you can play this film on Mac with Elmedia Player




    General
    Format                                   : Matroska
    Format version                           : Version 4 / Version 2
    File size                                : 1.69 GiB
    Duration                                 : 1 h 47 min
    Overall bit rate                         : 2 257 kb/s

    Video
    ID                                       : 1
    Format                                   : AVC
    Format/Info                              : Advanced Video Codec
    Format profile                           : [email protected]
    Format settings                          : CABAC / 4 Ref Frames
    Format settings, CABAC                   : Yes
    Format settings, RefFrames               : 4 frames
    Codec ID                                 : V_MPEG4/ISO/AVC
    Duration                                 : 1 h 47 min
    Bit rate                                 : 2 000 kb/s
    Width                                    : 1 920 pixels
    Height                                   : 840 pixels
    Display aspect ratio                     : 2.25:1
    Frame rate mode                          : Constant
    Frame rate                               : 23.976 (24000/1001) FPS
    Color space                              : YUV
    Chroma subsampling                       : 4:2:0
    Bit depth                                : 8 bits
    Scan type                                : Progressive
    Bits/(Pixel*Frame)                       : 0.052
    Stream size                              : 1.50 GiB (88%)
    Writing library                          : x264 core 155 r2901 7d0ff22
    Default                                  : Yes
    Forced                                   : No

    Audio #1
    ID                                       : 2
    Format                                   : AAC
    Format/Info                              : Advanced Audio Codec
    Format profile                           : LC
    Codec ID                                 : A_AAC-2
    Duration                                 : 1 h 47 min
    Bit rate                                 : 128 kb/s
    Channel(s)                               : 2 channels
    Channel positions                        : Front: L R
    Sampling rate                            : 48.0 kHz
    Frame rate                               : 46.875 FPS (1024 SPF)
    Compression mode                         : Lossy
    Stream size                              : 98.3 MiB (6%)
    Language                                 : Hindi
    Default                                  : Yes
    Forced                                   : No

    Audio #2
    ID                                       : 3
    Format                                   : AAC
    Format/Info                              : Advanced Audio Codec
    Format profile                           : LC
    Codec ID                                 : A_AAC-2
    Duration                                 : 1 h 47 min
    Bit rate                                 : 129 kb/s
    Channel(s)                               : 2 channels
    Channel positions                        : Front: L R
    Sampling rate                            : 48.0 kHz
    Frame rate                               : 46.875 FPS (1024 SPF)
    Compression mode                         : Lossy
    Stream size                              : 99.0 MiB (6%)
    Language                                 : English
    Default                                  : No
    Forced                                   : No


    https://pichub.site/image/D4MfX
    https://pichub.site/image/D4fPI
    https://pichub.site/image/D4Yh8
    https://pichub.site/image/D4aoJ
    https://pichub.site/image/D4IW5
    https://pichub.site/image/D4RVh



    Torrent Hash: BAD13DC1DFA3803B76659718BB4E604E42411969


    Num Trackers: 7 trackers




    TRACKER'S LIST COMPATIBLE WITH BITTORRENT CLIENT


    TrackerSeedersLeechersCompletedUpdated
    http://tracker.mg64.net:6881/announce 158 88 0 1 year
    http://mgtracker.org:2710/announce 164 104 0 1 year
    http://announce.xxx-tracker.com:2710/announce 217 101 0 1 year
    http://tracker1.itzmx.com:8080/announce 364 248 0 1 year
    udp://tracker.leechers-paradise.org:6969 846 250 0 1 year
    http://explodie.org:6969/announce 454 143 0 1 year
    udp://tracker.coppersurfer.tk:6969 874 260 0 1 year