Anyone.Home.2019.HDRip.XviD.AC3.LLG

seeders: 0     leechers: 0     updated: 1 week ago

Downloading Seeding from 0 peers
of -
0 b/s / 0 b/s

Warning! Use a VPN When Downloading Torrents.


Your IP Address is 3.228.24.192 Location is US.
Hide your IP ADDRESS with a VPN!

Get VPN App Mac Now!


    Anyone.Home.2019.HDRip.XviD.AC3.LLG ( 1.54 GB )
    Sample.ts427.28 MB
    Anyone.Home.2019.HDRip.XviD.AC3.LLG.mp41.13 GB

    By the way you can play this film on Mac with Elmedia Player

    quote:




    ******************************Thumbnail:**********************




    ******************************Screenshots:********************

    Screenshot 1

    Screenshot 2

    Screenshot 3

    Screenshot 4

    Screenshot 5F

    Screenshot 6

    Screenshot 7

    Screenshot 8

    Screenshot 9

    Screenshot 0


    ***************************************************************
    General
    Anyone.Home.2019.HDRip.XviD.AC3.LLG.mp4
    Format                                   : MPEG-4
    Format profile                           : Base Media
    Codec ID                                 : isom (isom/iso2/avc1/mp41)
    File size                                : 1.13 GiB
    Duration                                 : 1 h 24 min
    Overall bit rate mode                    : Variable
    Overall bit rate                         : 1 900 kb/s

    Video
    ID                                       : 1
    Format                                   : AVC
    Format/Info                              : Advanced Video Codec
    Format profile                           : [email protected]
    Format settings                          : CABAC / 1 Ref Frames
    Format settings, CABAC                   : Yes
    Format settings, Reference frames        : 1 frame
    Codec ID                                 : avc1
    Codec ID/Info                            : Advanced Video Coding
    Duration                                 : 1 h 24 min
    Bit rate mode                            : Variable
    Bit rate                                 : 1 513 kb/s
    Maximum bit rate                         : 4 500 kb/s
    Width                                    : 720 pixels
    Height                                   : 300 pixels
    Display aspect ratio                     : 2.40:1
    Frame rate mode                          : Constant
    Frame rate                               : 23.976 (23976/1000) FPS
    Color space                              : YUV
    Chroma subsampling                       : 4:2:0
    Bit depth                                : 8 bits
    Scan type                                : Progressive
    Bits/(Pixel*Frame)                       : 0.292
    Stream size                              : 917 MiB (80%)

    Audio
    ID                                       : 2
    Format                                   : AC-3
    Format/Info                              : Audio Coding 3
    Commercial name                          : Dolby Digital
    Codec ID                                 : ac-3
    Duration                                 : 1 h 24 min
    Bit rate mode                            : Constant
    Bit rate                                 : 384 kb/s
    Channel(s)                               : 6 channels
    Channel layout                           : L R C LFE Ls Rs
    Sampling rate                            : 48.0 kHz
    Frame rate                               : 31.250 FPS (1536 SPF)
    Bit depth                                : 16 bits
    Compression mode                         : Lossy
    Stream size                              : 233 MiB (20%)
    Language                                 : English
    Service kind                             : Complete Main


    ***************************************************************






    SIMILAR

    TORRENT   UPLOADEDSIZESEEDS LEECHS
    Ravens Home Season 2 Complete 720p WEB x264 [i_c] by ice_cracked 9 months 8.78 GB6 6
    My Ticket Home - unReal (2017) (Mp3 320kbps) [Hunter] by kajalsus 2 years 93.72 MB4 0
    Jordan Davis - Home State (2018) Mp3 (320kbps) [Hunter] by kajalsus 1 year 90.17 MB25 3
    VA - Nashville Outlaws: A Tribute To Mötley Crüe (Extended) (2019) Mp3 320kbps [PMEDIA] by pmedia 5 months 165.78 MB2 0
    Come Home Season 1 Complete 720p HDTV x264 [i_c] by ice_cracked 1 year 1.38 GB11 9
    Willie Nelson - Ride Me Back Home (2019) Mp3 (320 kbps) [Hunter] by kajalsus 3 months 101.21 MB31 1
    Home.from.Home.S01E05.XviD-AFG by TvTeam 1 year 433.94 MB3 0

    Did not find anything about this torrent yet...


    Torrent Hash: 9B78804C616B4FFACB3BBCBF0A1E17CC97886995

    No comments yet.