Avengers Infinity War 2018 720p HD-TC x264 Dual Audio [Hindi - English] [MW]

seeders: 39     leechers: 11     updated: 12 hours ago
Uploaded by MovieFreak7986 , was 2 days ago, day 14/06/2018 08:07:07
Downloaded 17 times, 1.18 GB - 1 file , filmes > Outros


Warning! Use a VPN When Downloading Torrents.


Your IP Address is 54.209.60.63 Location is US.
Hide your IP ADDRESS with a VPN!

Get VPN App Mac Now!


    Avengers Infinity War 2018 720p HD-TC x264 Dual Audio [Hindi - English] [MW] ( 1.18 GB )
    Avengers Infinity War 2018 720p HD-TC x264 Dual Audio [Hindi - English] [MW].mkv1.18 GB

    By the way you can play this film on Mac with Elmedia Player





    General
    Format                                   : Matroska
    Format version                           : Version 4 / Version 2
    File size                                : 1.18 GiB
    Duration                                 : 2 h 17 min
    Overall bit rate                         : 1 223 kb/s

    Video
    ID                                       : 1
    Format                                   : AVC
    Format/Info                              : Advanced Video Codec
    Format profile                           : [email protected]
    Format settings                          : CABAC / 5 Ref Frames
    Format settings, CABAC                   : Yes
    Format settings, RefFrames               : 5 frames
    Codec ID                                 : V_MPEG4/ISO/AVC
    Duration                                 : 2 h 17 min
    Bit rate                                 : 1 000 kb/s
    Width                                    : 1 280 pixels
    Height                                   : 532 pixels
    Display aspect ratio                     : 2.40:1
    Frame rate mode                          : Constant
    Frame rate                               : 25.000 FPS
    Color space                              : YUV
    Chroma subsampling                       : 4:2:0
    Bit depth                                : 8 bits
    Scan type                                : Progressive
    Bits/(Pixel*Frame)                       : 0.059
    Stream size                              : 982 MiB (81%)
    Writing library                          : x264 core 155 r2901 7d0ff22
    Default                                  : Yes
    Forced                                   : No

    Audio #1
    ID                                       : 2
    Format                                   : AAC
    Format/Info                              : Advanced Audio Codec
    Format profile                           : LC
    Codec ID                                 : A_AAC-2
    Duration                                 : 2 h 17 min
    Bit rate                                 : 128 kb/s
    Channel(s)                               : 2 channels
    Channel positions                        : Front: L R
    Sampling rate                            : 48.0 kHz
    Frame rate                               : 46.875 FPS (1024 SPF)
    Compression mode                         : Lossy
    Stream size                              : 126 MiB (10%)
    Language                                 : Hindi
    Default                                  : Yes
    Forced                                   : No

    Audio #2
    ID                                       : 3
    Format                                   : AAC
    Format/Info                              : Advanced Audio Codec
    Format profile                           : LC
    Codec ID                                 : A_AAC-2
    Duration                                 : 2 h 17 min
    Bit rate                                 : 96.0 kb/s
    Channel(s)                               : 2 channels
    Channel positions                        : Front: L R
    Sampling rate                            : 48.0 kHz
    Frame rate                               : 46.875 FPS (1024 SPF)
    Compression mode                         : Lossy
    Stream size                              : 94.6 MiB (8%)
    Language                                 : English
    Default                                  : No
    Forced                                   : No






    https://pichub.site/image/Y7CTR
    https://pichub.site/image/Y7tmB
    https://pichub.site/image/Y7zsY
    https://pichub.site/image/Y7AY6
    https://pichub.site/image/Y7K54





    SIMILAR

    TORRENT   UPLOADEDSIZESEEDS LEECHS
    Avengers: Infinity War (Deluxe) (OST) (2018) Mp3 [320kbps] by kajalsus 1 month 269.49 MB107 5
    Avengers Assemble Season 4 Secret Wars Complete FIXED 720p WEB-Dl x264 [i_c] by ice_cracked 2 months 6.43 GB1 0
    Infini (2015) 720p BrRip x264 - YIFY by YIFY 2 years 813.87 MB76 4
    AVENGERS.INFINITY.WAR.2018.TS.H264-DTOne by SaM 21 hours 1.37 GB329 171
    Avengers.Infinity.War.2018.720p.HD-CAM.X264.New-Source.DTOne by SaM 1 month 1.96 GB104 68
    Avengers Infinity War 2018 720p TS x264 AAC TiTAN by xxxlavalxxx 2 weeks 2.80 GB1 865 267
    Avengers Infinity War 2018 NEW PROPER HD-CAM X264 HQ-CPG by xxxlavalxxx 1 month 2.53 GB100 105

    Torrent Hash: C399F2DC88529879309A3E612E359AD65EF56B62


    Num Trackers: 4 trackers




    TRACKER'S LIST COMPATIBLE WITH BITTORRENT CLIENT


    TrackerSeedersLeechersCompletedUpdated
    http://public.popcorn-tracker.org:6969/announce 39 11 0 12 hours
    http://191.96.249.23:6969/announce 38 9 0 12 hours
    udp://thetracker.org:80/announce 5 7 0 12 hours
    http://bt.xxx-tracker.com:2710/announce 1 1 0 12 hours

    No comments yet.