Blade Runner 2049 2017 1080p WEB-DL DD 5.1 x264 ESub

seeders: 67     leechers: 5     updated: 1 week ago
Uploaded by MovieFreak3306 , was 3 weeks ago, day 26/12/2017 20:00:49
Downloaded 75 times, 2.23 GB - 1 file , filmes > WebDL


Warning! Use a VPN When Downloading Torrents.


Your IP Address is 23.22.240.119 Location is US.
Hide your IP ADDRESS with a VPN!

Get VPN App Mac Now!


    Blade Runner 2049 2017 1080p WEB-DL DD 5.1 x264 ESub ( 2.23 GB )
    Blade Runner 2049 2017 1080p WEB-DL DD 5.1 x264 ESub.mkv2.23 GB

    By the way you can play this film on Mac with Elmedia Player




    General
    Format                      : Matroska
    Format version              : Version 4 / Version 2
    File size                   : 2.23 GiB
    Duration                    : 2 h 43 min
    Overall bit rate            : 1 950 kb/s

    Video
    ID                          : 1
    Format                      : AVC
    Format/Info                 : Advanced Video Codec
    Format profile              : [email protected]
    Format settings             : CABAC / 4 Ref Frames
    Format settings, CABAC      : Yes
    Format settings, ReFrames   : 4 frames
    Codec ID                    : V_MPEG4/ISO/AVC
    Duration                    : 2 h 43 min
    Bit rate                    : 1 700 kb/s
    Width                       : 1 920 pixels
    Height                      : 796 pixels
    Display aspect ratio        : 2.40:1
    Frame rate mode             : Constant
    Frame rate                  : 23.976 (24000/1001) FPS
    Color space                 : YUV
    Chroma subsampling          : 4:2:0
    Bit depth                   : 8 bits
    Scan type                   : Progressive
    Bits/(Pixel*Frame)          : 0.046
    Stream size                 : 1.93 GiB (87%)
    Writing library             : x264 core 152 r2851 ba24899
    Default                     : Yes
    Forced                      : No

    Audio
    ID                          : 2
    Format                      : AC-3
    Format/Info                 : Audio Coding 3
    Codec ID                    : A_AC3
    Duration                    : 2 h 43 min
    Bit rate mode               : Constant
    Bit rate                    : 256 kb/s
    Channel(s)                  : 6 channels
    Channel positions           : Front: L C R, Side: L R, LFE
    Sampling rate               : 48.0 kHz
    Frame rate                  : 31.250 FPS (1536 SPF)
    Bit depth                   : 16 bits
    Compression mode            : Lossy
    Stream size                 : 299 MiB (13%)
    Service kind                : Complete Main
    Default                     : Yes
    Forced                      : No

    Text
    ID                          : 3
    Format                      : UTF-8
    Codec ID                    : S_TEXT/UTF8
    Codec ID/Info               : UTF-8 Plain Text
    Duration                    : 2 h 26 min
    Bit rate                    : 24 b/s
    Count of elements           : 974
    Stream size                 : 26.6 KiB (0%)
    Language                    : English
    Default                     : Yes
    Forced                      : No

    Menu
    00:00:00.000                : en:1
    00:12:35.171                : en:2
    00:23:28.282                : en:3
    00:36:59.885                : en:4
    00:42:49.316                : en:5
    00:49:23.500                : en:6
    00:58:34.550                : en:7
    01:04:09.676                : en:8
    01:15:46.289                : en:9
    01:25:11.478                : en:10
    01:36:14.056                : en:11
    01:50:54.102                : en:12
    02:01:35.867                : en:13
    02:08:39.373                : en:14
    02:16:41.480                : en:15
    02:27:45.726                : en:16

















    SIMILAR

    TORRENT   UPLOADEDSIZESEEDS LEECHS
    Blade Runner[EtHD] by EtHD 3 months 6.12 GB14 8
    Blade Runner 2049.HDRip.XviD.AC3-EVO[EtMovies] by EtHD 3 weeks 1.76 GB181 76
    Blade.Runner.2049.2017.BDRip.x264-SPARKS[EtMovies] by EtHD 2 weeks 635.07 MB36 24
    Blade Runner 2049.HDRip.XviD.AC3-EVO by xxxlavalxxx 3 weeks 1.76 GB6 738 3 888
    Blade Runner 2049.HDRip.XviD.AC3-EVO by makintos13 3 weeks 1.76 GB538 354
    Blade Runner 2049.BRRip.XviD.AC3-EVO[EtMovies] by EtHD 2 weeks 1.70 GB55 60
    Blade.Runner.2049.2017.PROPER.BDRip.x264-COCAIN[EtMovies] by EtHD 2 weeks 587.70 MB27 22

    Torrent Hash: 197ECD186BFC559ED5CCDBD55CBD887BE0BFB325


    Num Trackers: 6 trackers




    TRACKER'S LIST COMPATIBLE WITH BITTORRENT CLIENT


    TrackerSeedersLeechersCompletedUpdated
    udp://tracker.pirateparty.gr:6969/announce 67 5 0 2 weeks
    udp://tracker.coppersurfer.tk:6969/announce 61 3 0 2 weeks
    udp://tracker.leechers-paradise.org:6969/announce 28 6 0 2 weeks
    http://tracker.opentrackr.org/announce 19 9 0 2 weeks
    udp://p4p.arenabg.ch:1337/announce 13 5 0 2 weeks
    udp://tracker.vanitycore.co:6969/announce 12 3 0 2 weeks

    No comments yet.