Blade Runner 2049 2017 720p CAM x264

seeders: 69     leechers: 50     updated: 6 months ago
Uploaded by MovieFreak6861 , was 7 months ago, day 08/10/2017 15:46:24
Downloaded 155 times, 991.62 MB - 1 file , filmes > CAM


Warning! Use a VPN When Downloading Torrents.


Your IP Address is 54.81.116.187 Location is US.
Hide your IP ADDRESS with a VPN!

Get VPN App Mac Now!


    Blade Runner 2049 2017 720p CAM x264 ( 991.62 MB )
    Blade Runner 2049 2017 720p CAM x264.mkv991.62 MB

    By the way you can play this film on Mac with Elmedia Player



    General
    Format                                   : Matroska
    Format version                           : Version 4 / Version 2
    File size                                : 992 MiB
    Duration                                 : 2 h 15 min
    Overall bit rate                         : 1 025 kb/s

    Video
    ID                                       : 1
    Format                                   : AVC
    Format/Info                              : Advanced Video Codec
    Format profile                           : [email protected]
    Format settings                          : CABAC / 4 Ref Frames
    Format settings, CABAC                   : Yes
    Format settings, RefFrames               : 4 frames
    Codec ID                                 : V_MPEG4/ISO/AVC
    Duration                                 : 2 h 15 min
    Bit rate                                 : 900 kb/s
    Width                                    : 1 280 pixels
    Height                                   : 720 pixels
    Display aspect ratio                     : 16:9
    Frame rate mode                          : Constant
    Frame rate                               : 29.970 (29970/1000) FPS
    Color space                              : YUV
    Chroma subsampling                       : 4:2:0
    Bit depth                                : 8 bits
    Scan type                                : Progressive
    Bits/(Pixel*Frame)                       : 0.033
    Stream size                              : 868 MiB (88%)
    x264
    Writing library                          : x264 core 148 r2643 5c65704
    Default                                  : Yes
    Forced                                   : No

    Audio
    ID                                       : 2
    Format                                   : AAC
    Format/Info                              : Advanced Audio Codec
    Format profile                           : LC
    Codec ID                                 : A_AAC-2
    Duration                                 : 2 h 15 min
    Bit rate                                 : 125 kb/s
    Channel(s)                               : 2 channels
    Channel positions                        : Front: L R
    Sampling rate                            : 48.0 kHz
    Frame rate                               : 46.875 FPS (1024 SPF)
    Compression mode                         : Lossy
    Stream size                              : 121 MiB (12%)
    Default                                  : Yes
    Forced                                   : No


    Source : Blade Runner 2049.2017.CAM.X264-LickMe.mkv












    SIMILAR

    TORRENT   UPLOADEDSIZESEEDS LEECHS
    Blade.Runner.2049.2017.Bluray.1080p.TrueHD.7.1.Atmos.x264-Grym by vonRicht 2 months 22.71 GB126 270
    Blade Runner[EtHD] by EtHD 6 months 6.12 GB14 8
    Blade Runner 2049.HDRip.XviD.AC3-EVO[EtMovies] by EtHD 4 months 1.76 GB181 76
    Blade.Runner.2049.2017.BDRip.x264-SPARKS[EtMovies] by EtHD 3 months 635.07 MB36 24
    Blade Runner 2049.HDRip.XviD.AC3-EVO by makintos13 4 months 1.76 GB538 354
    Blade Runner 2049.HDRip.XviD.AC3-EVO by xxxlavalxxx 4 months 1.76 GB6 738 3 888
    Blade Runner 2049.BRRip.XviD.AC3-EVO[EtMovies] by EtHD 3 months 1.70 GB55 60

    Torrent Hash: B1E9B715E82862F550309562E2E7CE7A3C29D5E0


    Num Trackers: 10 trackers




    TRACKER'S LIST COMPATIBLE WITH BITTORRENT CLIENT


    TrackerSeedersLeechersCompletedUpdated
    udp://tracker.pirateparty.gr:6969/announce 69 50 0 7 months
    udp://tracker.leechers-paradise.org:6969/announce 69 15 0 7 months
    udp://tracker.leechers-paradise.org:80/announce 63 23 0 7 months
    udp://tracker.coppersurfer.tk:6969/announce 60 20 0 7 months
    udp://tracker.mg64.net:2710/announce 23 15 0 7 months
    http://mgtracker.org:2710/announce 17 4 0 7 months
    udp://tracker.coppersurfer.tk:6969 2 11 0 7 months
    udp://9.rarbg.to:2710 2 11 0 7 months
    udp://eddie4.nl:6969 2 10 0 7 months
    udp://tracker.leechers-paradise.org:6969 0 0 0 7 months

    No comments yet.