Blade Runner 2049 (2017) - WEBRIP - 1.46GB - AC-3

seeders: 2 344     leechers: 577     updated: 3 months ago
Uploaded by makintos1353635 , was 4 months ago, day 20/12/2017 10:34:03
Downloaded 322 times, 1.46 GB - 1 file , filmes > WebDL


Warning! Use a VPN When Downloading Torrents.


Your IP Address is 54.81.116.187 Location is US.
Hide your IP ADDRESS with a VPN!

Get VPN App Mac Now!


    Blade Runner 2049 (2017) - WEBRIP - 1.46GB - AC-3 ( 1.46 GB )
    Blade Runner 2049 (2017) - WEBRIP - 1.46GB - AC-3.avi1.46 GB

    By the way you can play this film on Mac with Elmedia Player

    screens:
    https://imgmak.com/med
    https://imgmak.com/mes
    https://imgmak.com/me4
    https://imgmak.com/me8

    Format                  : AVI
    Format/Info               : Audio Video Interleave
    File size                : 1.46 GiB
    Duration                 : 2 h 37 min
    Overall bit rate             : 1 324 kb/s
    Writing application           : VirtualDubMod 1.5.10.2 (build 2540/release)
    Writing library             : VirtualDubMod build 2540/release

    Video
    ID                    : 0
    Format                  : MPEG-4 Visual
    Format profile              : Advanced [email protected]
    Format settings             : BVOP2
    Format settings, BVOP          : 2
    Format settings, QPel          : No
    Format settings, GMC           : No warppoints
    Format settings, Matrix         : Default (MPEG)
    Codec ID                 : XVID
    Codec ID/Hint              : XviD
    Duration                 : 2 h 37 min
    Bit rate                 : 1 187 kb/s

    Width                  : 720 pixels
    Height                  : 304 pixels
    Display aspect ratio           : 2.35:1
    Frame rate                : 23.976 (24000/1001) FPS
    Color space               : YUV
    Chroma subsampling            : 4:2:0
    Bit depth                : 8 bits
    Scan type                : Progressive
    Compression mode             : Lossy
    Bits/(Pixel*Frame)            : 0.226
    Stream size               : 1.31 GiB (90%)
    Writing library             : XviD 1.2.1 (UTC 2008-12-04)

    Audio
    ID                    : 1
    Format                  : AC-3
    Format/Info               : Audio Coding 3
    Format settings, Endianness       : Big
    Codec ID                 : 2000
    Duration                 : 2 h 37 min
    Bit rate mode              : Constant
    Bit rate                 : 128 kb/s
    lang                   : rus
    Channel(s)                : 2 channels
    Channel positions            : Front: L R
    Sampling rate              : 48.0 kHz
    Frame rate                : 31.250 FPS (1536 SPF)
    Bit depth                : 16 bits
    Compression mode             : Lossy
    Stream size               : 144 MiB (10%)
    Alignment                : Split accross interleaves
    Interleave, duration           : 42 ms (1.00 video frame)
    Interleave, preload duration       : 500 ms



    SIMILAR

    TORRENT   UPLOADEDSIZESEEDS LEECHS
    Blade.Runner.2049.2017.Bluray.1080p.TrueHD.7.1.Atmos.x264-Grym by vonRicht 2 months 22.71 GB126 270
    Blade Runner[EtHD] by EtHD 6 months 6.12 GB14 8
    Blade Runner 2049.HDRip.XviD.AC3-EVO[EtMovies] by EtHD 4 months 1.76 GB181 76
    Blade.Runner.2049.2017.BDRip.x264-SPARKS[EtMovies] by EtHD 3 months 635.07 MB36 24
    Blade Runner 2049.HDRip.XviD.AC3-EVO by makintos13 4 months 1.76 GB538 354
    Blade Runner 2049.HDRip.XviD.AC3-EVO by xxxlavalxxx 4 months 1.76 GB6 738 3 888
    Blade Runner 2049.BRRip.XviD.AC3-EVO[EtMovies] by EtHD 3 months 1.70 GB55 60

    Torrent Hash: 5E2550B8D64DF8170964C704257055256BCC7141


    Num Trackers: 8 trackers




    TRACKER'S LIST COMPATIBLE WITH BITTORRENT CLIENT


    TrackerSeedersLeechersCompletedUpdated
    udp://tracker.leechers-paradise.org:6969/announce 2 344 577 0 4 months
    udp://tracker.coppersurfer.tk:6969/announce 2 260 529 0 4 months
    udp://opentrackr.org:1337/announce 967 419 0 4 months
    udp://public.popcorn-tracker.org:6969/announce 644 342 0 4 months
    http://mgtracker.org:6881/announce 339 233 0 4 months
    http://tracker.acg.gg:1578/announce 44 12 0 4 months
    udp://tracker.coppersurfer.tk:6969 2 7 0 4 months
    udp://tracker.leechers-paradise.org:6969 0 0 0 4 months

    No comments yet.