Blood Honey 2018 HDRip x264 [MW]

seeders: 0     leechers: 2     updated: 3 months ago
Uploaded by MovieFreak8881 , was 3 months ago, day 11/04/2018 13:08:42
Downloaded 79 times, 708.05 MB - 1 file , filmes > Outros


Warning! Use a VPN When Downloading Torrents.


Your IP Address is 54.224.83.221 Location is US.
Hide your IP ADDRESS with a VPN!

Get VPN App Mac Now!


    Blood Honey 2018 HDRip x264 [MW] ( 708.05 MB )
    Blood Honey 2018 HDRip x264 [MW].mkv708.05 MB

    By the way you can play this film on Mac with Elmedia Player





    General
    Format                                   : Matroska
    Format version                           : Version 4 / Version 2
    File size                                : 708 MiB
    Duration                                 : 1 h 23 min
    Overall bit rate                         : 1 192 kb/s

    Video
    ID                                       : 1
    Format                                   : AVC
    Format/Info                              : Advanced Video Codec
    Format profile                           : [email protected]
    Format settings                          : CABAC / 4 Ref Frames
    Format settings, CABAC                   : Yes
    Format settings, RefFrames               : 4 frames
    Codec ID                                 : V_MPEG4/ISO/AVC
    Duration                                 : 1 h 23 min
    Bit rate                                 : 1 100 kb/s
    Width                                    : 720 pixels
    Height                                   : 384 pixels
    Display aspect ratio                     : 1.85:1
    Frame rate mode                          : Constant
    Frame rate                               : 23.976 (24000/1001) FPS
    Color space                              : YUV
    Chroma subsampling                       : 4:2:0
    Bit depth                                : 8 bits
    Scan type                                : Progressive
    Bits/(Pixel*Frame)                       : 0.166
    Stream size                              : 651 MiB (92%)
    Writing library                          : x264 core 155 r2893 b00bcaf
    Default                                  : Yes
    Forced                                   : No

    Audio
    ID                                       : 2
    Format                                   : AAC
    Format/Info                              : Advanced Audio Codec
    Format profile                           : HE-AAC / LC
    Format settings                          : Explicit
    Codec ID                                 : A_AAC-2
    Duration                                 : 1 h 23 min
    Bit rate                                 : 96.0 kb/s
    Channel(s)                               : 2 channels
    Channel positions                        : Front: L R
    Sampling rate                            : 48.0 kHz / 24.0 kHz
    Frame rate                               : 23.438 FPS (1024 SPF)
    Compression mode                         : Lossy
    Stream size                              : 56.2 MiB (8%)
    Language                                 : English
    Default                                  : Yes
    Forced                                   : No

    Menu
    00:00:00.000                             : en:01
    00:07:46.091                             : en:02
    00:13:30.018                             : en:03
    00:21:08.142                             : en:04
    00:27:48.083                             : en:05
    00:34:57.137                             : en:06
    00:43:03.122                             : en:07
    00:49:59.079                             : en:08
    00:56:38.020                             : en:09
    01:04:13.016                             : en:10
    01:10:56.043                             : en:11
    01:18:49.099                             : en:12





    https://pichub.site/image/J5Fyk
    https://pichub.site/image/J5WFv
    https://pichub.site/image/J5edd
    https://pichub.site/image/J5q3u
    https://pichub.site/image/J5ju9
    https://pichub.site/image/JlfIR




    SIMILAR

    TORRENT   UPLOADEDSIZESEEDS LEECHS
    Blood.Honey.2018.HDRip.XviD.AC3-EVO by xxxlavalxxx 3 months 1.40 GB17 29
    Blood.Honey.2018.HDRip.XviD.AC3-EVO by Supernova 3 months 1.40 GB3 2
    Blood.Honey.2018.HDRip.XviD.AC3-EVO[EtMovies] by EtHD 3 months 1.40 GB19 19
    Blood.Honey.2018.HDrip.AC3.X264-CMRG[EtMovies] by EtHD 3 months 1.20 GB20 2
    Blood.Honey.2018.1080p.WEB-DL.DD5.1.H.264-FGT[EtHD] by EtHD 3 months 3.15 GB14 5
    Blood.Honey.2018.HDrip.AC3.X264-CMRG by Supernova 3 months 1.20 GB2 0
    Rhye - Blood (2018) Mp3 (320kbps) [Hunter] by kajalsus 5 months 98.44 MB52 2

    Torrent Hash: 2CE51A24B0979CB5743530E19AF385E64DA21432


    Num Trackers: 2 trackers




    TRACKER'S LIST COMPATIBLE WITH BITTORRENT CLIENT


    TrackerSeedersLeechersCompletedUpdated
    http://public.popcorn-tracker.org:6969/announce 0 2 0 3 months
    http://191.96.249.23:6969/announce 0 2 0 3 months

    No comments yet.