Blood Honey (2018) Movie HDRip x264 AC3 by Full4movies.mp4

seeders: 2     leechers: 1     updated: 5 months ago
Uploaded by mimranjamil3693 , was 5 months ago, day 11/04/2018 13:51:48
Downloaded 70 times, 437.14 MB - 1 file , movies > DVDRip


Warning! Use a VPN When Downloading Torrents.


Your IP Address is 54.198.103.13 Location is US.
Hide your IP ADDRESS with a VPN!

Get VPN App Mac Now!


    Blood Honey (2018) Movie HDRip x264 AC3 by Full4movies.mp4 ( 437.14 MB )
    Blood Honey (2018) Movie HDRip x264 AC3 by Full4movies.mp4437.14 MB

    By the way you can play this film on Mac with Elmedia Player



    General
    Complete name                  : Blood Honey (2018) Movie HDRip x264 AC3 by Full4movies.mp4
    Format                         : MPEG-4
    Format profile                 : Base Media
    Codec ID                       : isom (isom/iso2/avc1/mp41)
    File size                      : 437 MiB
    Duration                       : 1 h 23 min
    Overall bit rate               : 736 kb/s
    Movie name                     : Blood Honey (2018) - www.Full4movies.co
    Writing application            : Lavf57.83.100

    Video
    ID                             : 1
    Format                         : AVC
    Format/Info                    : Advanced Video Codec
    Format profile                 : [email protected]
    Format settings, CABAC         : Yes
    Format settings, RefFrames     : 5 frames
    Codec ID                       : avc1
    Codec ID/Info                  : Advanced Video Coding
    Duration                       : 1 h 23 min
    Source duration                : 4 min 18 s
    Bit rate                       : 640 kb/s
    Width                          : 720 pixels
    Height                         : 384 pixels
    Display aspect ratio           : 1.85:1
    Frame rate mode                : Constant
    Frame rate                     : 23.976 FPS
    Color space                    : YUV
    Chroma subsampling             : 4:2:0
    Bit depth                      : 8 bits
    Scan type                      : Progressive
    Bits/(Pixel*Frame)             : 0.097
    Stream size                    : 377 MiB (86%)
    Source stream size             : 377 MiB (86%)
    Writing library                : x264 core 148 r2643 5c65704
    mdhd_Duration                  : 4982974

    Audio
    ID                             : 2
    Format                         : AAC
    Format/Info                    : Advanced Audio Codec
    Format profile                 : LC
    Codec ID                       : 40
    Duration                       : 1 h 23 min
    Duration_LastFrame             : -11 ms
    Bit rate mode                  : Constant
    Bit rate                       : 96.0 kb/s
    Channel(s)                     : 2 channels
    Channel positions              : Front: L R
    Sampling rate                  : 48.0 kHz
    Frame rate                     : 46.875 FPS (1024 SPF)
    Compression mode               : Lossy
    Stream size                    : 57.4 MiB (13%)
    Default                        : Yes
    Alternate group                : 1

    Screen Shoots



    SIMILAR

    TORRENT   UPLOADEDSIZESEEDS LEECHS
    Blood.Honey.2018.HDRip.XviD.AC3-EVO by xxxlavalxxx 5 months 1.40 GB17 29
    Blood.Honey.2018.HDRip.XviD.AC3-EVO by Supernova 5 months 1.40 GB3 2
    Blood.Honey.2018.HDRip.XviD.AC3-EVO[EtMovies] by EtHD 5 months 1.40 GB19 19
    Blood.Honey.2018.HDrip.AC3.X264-CMRG[EtMovies] by EtHD 5 months 1.20 GB20 2
    Blood.Honey.2018.1080p.WEB-DL.DD5.1.H.264-FGT[EtHD] by EtHD 5 months 3.15 GB14 5
    Blood.Honey.2018.HDrip.AC3.X264-CMRG by Supernova 5 months 1.20 GB2 0
    Rhye - Blood (2018) Mp3 (320kbps) [Hunter] by kajalsus 8 months 98.44 MB52 2

    Torrent Hash: FCB5A6556824B45D8D1BE937C407FA47A594EB0B


    Num Trackers: 4 trackers




    TRACKER'S LIST COMPATIBLE WITH BITTORRENT CLIENT


    TrackerSeedersLeechersCompletedUpdated
    http://public.popcorn-tracker.org:6969/announce 2 1 0 5 months
    http://191.96.249.23:6969/announce 2 1 0 5 months
    http://182.190.3.68:6969/announce 1 0 0 5 months
    http://bt.xxx-tracker.com:2710/announce 1 0 0 5 months

    No comments yet.