Bose DEAD ALIVE Season 01 Episode 01 (Dead Or Alive) 1080p WEB-DL x264 ESub

seeders: 0     leechers: 0     updated: 1 year ago

Downloading Seeding from 0 peers
of -
0 b/s / 0 b/s

Warning! Use a VPN When Downloading Torrents.


Your IP Address is 18.206.16.123 Location is US.
Hide your IP ADDRESS with a VPN!

Get VPN App Mac Now!


    Bose DEAD ALIVE Season 01 Episode 01 (Dead Or Alive) 1080p WEB-DL x264 ESub ( 691.65 MB )
    Bose DEAD ALIVE Season 01 Episode 01 (Dead Or Alive) 1080p WEB-DL x264 ESub.mkv691.65 MB

    By the way you can play this film on Mac with Elmedia Player





    General
    Format                                   : Matroska
    Format version                           : Version 4 / Version 2
    File size                                : 692 MiB
    Duration                                 : 20 min 36 s
    Overall bit rate                         : 4 693 kb/s

    Video
    ID                                       : 1
    Format                                   : AVC
    Format/Info                              : Advanced Video Codec
    Format profile                           : [email protected]
    Format settings                          : CABAC / 4 Ref Frames
    Format settings, CABAC                   : Yes
    Format settings, RefFrames               : 4 frames
    Codec ID                                 : V_MPEG4/ISO/AVC
    Duration                                 : 20 min 36 s
    Bit rate                                 : 4 500 kb/s
    Width                                    : 1 920 pixels
    Height                                   : 1 088 pixels
    Original height                          : 1 080 pixels
    Display aspect ratio                     : 16:9
    Original display aspect ratio            : 16:9
    Frame rate mode                          : Constant
    Frame rate                               : 25.000 FPS
    Color space                              : YUV
    Chroma subsampling                       : 4:2:0
    Bit depth                                : 8 bits
    Scan type                                : Progressive
    Bits/(Pixel*Frame)                       : 0.086
    Stream size                              : 672 MiB (97%)
    Writing library                          : x264 core 142 r2431 ac76440
    Default                                  : Yes
    Forced                                   : No

    Audio
    ID                                       : 2
    Format                                   : AC-3
    Format/Info                              : Audio Coding 3
    Format settings, Endianness              : Big
    Codec ID                                 : A_AC3
    Duration                                 : 20 min 36 s
    Bit rate mode                            : Constant
    Bit rate                                 : 128 kb/s
    Channel(s)                               : 2 channels
    Channel positions                        : Front: L R
    Sampling rate                            : 44.1 kHz
    Frame rate                               : 28.711 FPS (1536 SPF)
    Bit depth                                : 16 bits
    Compression mode                         : Lossy
    Stream size                              : 18.9 MiB (3%)
    Service kind                             : Complete Main
    Default                                  : Yes
    Forced                                   : No

    Text
    ID                                       : 3
    Format                                   : UTF-8
    Codec ID                                 : S_TEXT/UTF8
    Codec ID/Info                            : UTF-8 Plain Text
    Duration                                 : 17 min 45 s
    Bit rate                                 : 83 b/s
    Count of elements                        : 313
    Stream size                              : 10.9 KiB (0%)
    Default                                  : Yes
    Forced                                   : No














    SIMILAR

    TORRENT   UPLOADEDSIZESEEDS LEECHS
    Bose Dead Alive Season 01 Episode 03 (Catch Me If You Can) 1080p WEB-DL x264 ESub by MovieFreak 1 year 777.33 MB34 11
    Bose Dead Alive Season 01 Episode 02 (Bane Of The British Raj) 1080p WEB-DL x264 ESub by MovieFreak 1 year 707.88 MB27 14
    LEFT ALIVE-FULL UNLOCKED (Uncracked) by dauphong 5 months 21.72 GB4 6
    The Walking Dead Season 8 Complete 720p HDTV x264 [i_c] by ice_cracked 1 year 12.71 GB49 80
    Buddy Guy - The Blues Is Alive And Well (2018) Mp3 (320kbps) by kajalsus 1 year 157.40 MB38 2
    Tonight Alive - Underworld (2018) Mp3 (320kbps) [Hunter] by kajalsus 1 year 110.67 MB42 5
    Dead or Alive 6-CODEX by dauphong 7 months 22.07 GB366 397

    Did not find anything about this torrent yet...


    Torrent Hash: 133D16045B2246CB3BDC8426875A8CAC528622C0

    No comments yet.