Can.You.Keep.A.Secret..2019.1080p.WEBRip.x264.LLG

seeders: 0     leechers: 0     updated: 1 week ago

Downloading Seeding from 0 peers
of -
0 b/s / 0 b/s

Warning! Use a VPN When Downloading Torrents.


Your IP Address is 34.204.191.31 Location is US.
Hide your IP ADDRESS with a VPN!

Get VPN App Mac Now!


    Can.You.Keep.A.Secret..2019.1080p.WEBRip.x264.LLG ( 1.16 GB )
    Sample.mp434.68 MB
    Can.You.Keep.A.Secret..2019.1080p.WEBRip.x264.LLG.mp41.13 GB

    By the way you can play this film on Mac with Elmedia Player

    quote:




    ******************************Thumbnail:**********************




    ******************************Screenshots:********************

    Screenshot 1

    Screenshot 2

    Screenshot 3

    Screenshot 4

    Screenshot 5

    Screenshot 6

    Screenshot 7

    Screenshot 8

    Screenshot 9

    Screenshot 10


    ***************************************************************
    General
    Can.You.Keep.A.Secret..2019.1080p.WEBRip.x264.LLG.mp4
    Format                                   : MPEG-4
    Format profile                           : Base Media
    Codec ID                                 : isom (isom/iso2/avc1/mp41)
    File size                                : 1.13 GiB
    Duration                                 : 1 h 34 min
    Overall bit rate mode                    : Variable
    Overall bit rate                         : 1 705 kb/s
    Writing application                      : Lavf57.83.100

    Video
    ID                                       : 1
    Format                                   : AVC
    Format/Info                              : Advanced Video Codec
    Format profile                           : [email protected]
    Format settings                          : CABAC / 1 Ref Frames
    Format settings, CABAC                   : Yes
    Format settings, Reference frames        : 1 frame
    Codec ID                                 : avc1
    Codec ID/Info                            : Advanced Video Coding
    Duration                                 : 1 h 34 min
    Bit rate mode                            : Variable
    Bit rate                                 : 1 573 kb/s
    Maximum bit rate                         : 4 500 kb/s
    Width                                    : 1 920 pixels
    Height                                   : 1 024 pixels
    Display aspect ratio                     : 1.85:1
    Frame rate mode                          : Constant
    Frame rate                               : 24.000 FPS
    Color space                              : YUV
    Chroma subsampling                       : 4:2:0
    Bit depth                                : 8 bits
    Scan type                                : Progressive
    Bits/(Pixel*Frame)                       : 0.033
    Stream size                              : 1.04 GiB (92%)
    Codec configuration box                  : avcC

    Audio
    ID                                       : 2
    Format                                   : AAC LC
    Format/Info                              : Advanced Audio Codec Low Complexity
    Codec ID                                 : mp4a-40-2
    Duration                                 : 1 h 34 min
    Bit rate mode                            : Constant
    Bit rate                                 : 128 kb/s
    Channel(s)                               : 2 channels
    Channel layout                           : L R
    Sampling rate                            : 48.0 kHz
    Frame rate                               : 46.875 FPS (1024 SPF)
    Compression mode                         : Lossy
    Stream size                              : 86.6 MiB (8%)
    Default                                  : Yes
    Alternate group                          : 1


    ***************************************************************






    Did not find anything about this torrent yet...


    Torrent Hash: 7BEE33F468FFE34B511A44FA9758D7EA3916F225

    No comments yet.