Captive State (2019) 720p English HDCAM x264 AAC by Full4movies

seeders: 3     leechers: 1     updated: 5 months ago

Downloading Seeding from 0 peers
of -
0 b/s / 0 b/s

Warning! Use a VPN When Downloading Torrents.


Your IP Address is 3.226.251.205 Location is US.
Hide your IP ADDRESS with a VPN!

Get VPN App Mac Now!


    Captive State (2019) 720p English HDCAM x264 AAC by Full4movies ( 974.86 MB )
    Captive State (2019) 720p English HDCAM x264 AAC by Full4movies.mp4974.86 MB

    By the way you can play this film on Mac with Elmedia Player



    General
    Complete name                  : Captive State (2019) 720p English HDCAM x264 AAC by Full4movies.mp4
    Format                         : MPEG-4
    Format profile                 : Base Media
    Codec ID                       : isom (isom/iso2/avc1/mp41)
    File size                      : 975 MiB
    Duration                       : 1 h 45 min
    Overall bit rate               : 1 288 kb/s
    Writing application            : Lavf57.83.100

    Video
    ID                             : 1
    Format                         : AVC
    Format/Info                    : Advanced Video Codec
    Format profile                 : [email protected]
    Format settings                : CABAC / 5 Ref Frames
    Format settings, CABAC         : Yes
    Format settings, ReFrames      : 5 frames
    Codec ID                       : avc1
    Codec ID/Info                  : Advanced Video Coding
    Duration                       : 1 h 45 min
    Bit rate                       : 1 152 kb/s
    Width                          : 1 280 pixels
    Height                         : 536 pixels
    Display aspect ratio           : 2.40:1
    Frame rate mode                : Constant
    Frame rate                     : 29.970 (30000/1001) FPS
    Color space                    : YUV
    Chroma subsampling             : 4:2:0
    Bit depth                      : 8 bits
    Scan type                      : Progressive
    Bits/(Pixel*Frame)             : 0.056
    Stream size                    : 872 MiB (89%)
    Writing library                : x264 core 148 r2795 aaa9aa8
    Codec configuration box        : avcC

    Audio
    ID                             : 2
    Format                         : AAC LC
    Format/Info                    : Advanced Audio Codec Low Complexity
    Codec ID                       : mp4a-40-2
    Duration                       : 1 h 45 min
    Duration_LastFrame             : -11 ms
    Bit rate mode                  : Constant
    Bit rate                       : 128 kb/s
    Channel(s)                     : 2 channels
    Channel layout                 : L R
    Sampling rate                  : 48.0 kHz
    Frame rate                     : 46.875 FPS (1024 SPF)
    Compression mode               : Lossy
    Stream size                    : 97.2 MiB (10%)
    Default                        : Yes
    Alternate group                : 1

    Screen Shoots



    SIMILAR

    TORRENT   UPLOADEDSIZESEEDS LEECHS
    Captive State 2019.BRRip.XviD.AC3-EVO by xxxlavalxxx 2 months 1.30 GB18 6
    Captive State.2019.BRRip.XViD-ETRG by ExtraTorrentRG 3 months 709.37 MB29 14
    Captive.State.2019.1080p.BluRay.x264-MAYHEM[EtHD] by EtHD 3 months 7.73 GB14 8
    Captive.State.2019.720p.BluRay.x264-MAYHEM[EtHD] by EtHD 3 months 4.41 GB20 8
    Captive.State.2019.BDRip.x264-MAYHEM[EtMovies] by EtHD 3 months 583.66 MB4 0
    Captive State 2019.BRRip.XviD.AC3-EVO by TvTeam 3 months 1.30 GB4 3
    Captive.State.2019.BDRip.x264-MAYHEM[TGx] by sotnikam 3 months 583.66 MB11 2

    Torrent Hash: 3444CC243668EF7799D4A476C3D8805F0A46A7C3


    Num Trackers: 2 trackers




    TRACKER'S LIST COMPATIBLE WITH BITTORRENT CLIENT


    TrackerSeedersLeechersCompletedUpdated
    udp://tracker.pirateparty.gr:6969/announce 2 5 0 5 months
    udp://thetracker.org:80/announce 3 1 0 5 months

    No comments yet.