Captive State 2019 720p HDCAM x264 [MW]

seeders: 94     leechers: 30     updated: 3 months ago

Downloading Seeding from 0 peers
of -
0 b/s / 0 b/s

Warning! Use a VPN When Downloading Torrents.


Your IP Address is 35.153.135.60 Location is US.
Hide your IP ADDRESS with a VPN!

Get VPN App Mac Now!


    Captive State 2019 720p HDCAM x264 [MW] ( 1.07 GB )
    Captive State 2019 720p HDCAM x264 [MW].mkv1.07 GB

    By the way you can play this film on Mac with Elmedia Player





    General
    Format                                   : Matroska
    Format version                           : Version 4
    File size                                : 1.07 GiB
    Duration                                 : 1 h 45 min
    Overall bit rate                         : 1 444 kb/s

    Video
    ID                                       : 1
    Format                                   : AVC
    Format/Info                              : Advanced Video Codec
    Format profile                           : [email protected]
    Format settings                          : CABAC / 4 Ref Frames
    Format settings, CABAC                   : Yes
    Format settings, RefFrames               : 4 frames
    Codec ID                                 : V_MPEG4/ISO/AVC
    Duration                                 : 1 h 45 min
    Bit rate                                 : 1 250 kb/s
    Width                                    : 1 280 pixels
    Height                                   : 532 pixels
    Display aspect ratio                     : 2.40:1
    Frame rate mode                          : Constant
    Frame rate                               : 29.970 (30000/1001) FPS
    Color space                              : YUV
    Chroma subsampling                       : 4:2:0
    Bit depth                                : 8 bits
    Scan type                                : Progressive
    Bits/(Pixel*Frame)                       : 0.061
    Stream size                              : 945 MiB (86%)
    Writing library                          : x264 core 157 r2935 545de2f

    Audio
    ID                                       : 2
    Format                                   : AAC LC
    Codec ID                                 : A_AAC-2
    Duration                                 : 1 h 45 min
    Bit rate                                 : 192 kb/s
    Channel(s)                               : 2 channels
    Channel layout                           : L R
    Sampling rate                            : 48.0 kHz
    Frame rate                               : 46.875 FPS (1024 SPF)
    Compression mode                         : Lossy
    Stream size                              : 146 MiB (13%)
    Language                                 : English
    Default                                  : Yes
    Forced                                   : No


    Click To View Image

    https://pichub.site/image/wVWAr
    https://pichub.site/image/wVb6k
    https://pichub.site/image/wVqCv
    https://pichub.site/image/wcfQ9
    https://pichub.site/image/wc4rd
    https://pichub.site/image/wcM7u




    SIMILAR

    TORRENT   UPLOADEDSIZESEEDS LEECHS
    Captive State 2019.BRRip.XviD.AC3-EVO by xxxlavalxxx 1 month 1.30 GB18 6
    Captive State.2019.BRRip.XViD-ETRG by ExtraTorrentRG 1 month 709.37 MB29 14
    Captive.State.2019.1080p.BluRay.x264-MAYHEM[EtHD] by EtHD 1 month 7.73 GB14 8
    Captive.State.2019.720p.BluRay.x264-MAYHEM[EtHD] by EtHD 1 month 4.41 GB20 8
    Captive.State.2019.BDRip.x264-MAYHEM[EtMovies] by EtHD 1 month 583.66 MB4 0
    Captive State 2019.BRRip.XviD.AC3-EVO by TvTeam 1 month 1.30 GB4 3
    Captive.State.2019.BDRip.x264-MAYHEM[TGx] by sotnikam 1 month 583.66 MB11 2

    Torrent Hash: 2A71B5104982901C3A7C0DF7808B75F9F7B44DB4


    Num Trackers: 9 trackers




    TRACKER'S LIST COMPATIBLE WITH BITTORRENT CLIENT


    TrackerSeedersLeechersCompletedUpdated
    udp://tracker.pirateparty.gr:6969/announce 19 5 0 3 months
    udp://thetracker.org:80/announce 4 0 0 3 months
    http://sugoi.pomf.se/announce 4 0 0 3 months
    http://announce.xxx-tracker.com:2710/announce 4 1 0 3 months
    http://tracker1.itzmx.com:8080/announce 94 30 0 3 months
    http://tracker.pomf.se/announce 6 0 0 3 months
    udp://tracker.leechers-paradise.org:6969 22 9 0 3 months
    http://explodie.org:6969/announce 6 2 0 3 months
    udp://tracker.coppersurfer.tk:6969 32 3 0 3 months

    No comments yet.