Class of 2020 Season 2 Ep 1-11 720p HEVC H265 WEB-DL DD2.0 - By Movieaio

seeders: 12     leechers: 16     updated: 7 months ago

Downloading Seeding from 0 peers
of -
0 b/s / 0 b/s
    Class of 2020 Season 2 Ep 1-11 720p HEVC H265 WEB-DL DD2.0 - By Movieaio ( 2.34 GB )

    quote:

    Class Of 2020 Season 2 Ep 1-11 WEB-DL 720p HEVC H265 AAC - By Movieaio




    Telegram - Movieaio









    quote:

    Poster :



    quote:

    [size=30]Screenshots : Click On the Image to Enlarge it[/size]


    Thanks for the download

    Dont Forget to seed As much you Download

    - Movieaio



    General
    Complete name                            : [Telegram - Movieaio] Class of 2020 S02E01 720p HEVC WEB-DL H264.mkv
    Format                                   : Matroska
    Format version                           : Version 4
    File size                                : 222 MiB
    Duration                                 : 21 min 14 s
    Overall bit rate                         : 1 462 kb/s
    Movie name                               : Telegram | Movieaio
    Writing application                      : Lavf58.29.100
    Writing library                          : Lavf58.29.100
    ErrorDetectionType                       : Per level 1

    Video
    ID                                       : 1
    Format                                   : HEVC
    Format/Info                              : High Efficiency Video Coding
    Format profile                           : [email protected]@Main
    Codec ID                                 : V_MPEGH/ISO/HEVC
    Duration                                 : 21 min 14 s
    Bit rate                                 : 3 736 kb/s
    Width                                    : 1 274 pixels
    Height                                   : 720 pixels
    Display aspect ratio                     : 16:9
    Frame rate mode                          : Constant
    Frame rate                               : 25.000 FPS
    Color space                              : YUV
    Chroma subsampling                       : 4:2:0
    Bit depth                                : 8 bits
    Bits/(Pixel*Frame)                       : 0.163
    Stream size                              : 568 MiB
    Title                                    : Telegram | Movieaio
    Writing library                          : x265 3.2+2-82a66ce12955:[Linux][GCC 7.4.0][64 bit] 8bit
    Language                                 : English
    Default                                  : Yes
    Forced                                   : No
    Color range                              : Limited

    Audio
    ID                                       : 2
    Format                                   : AAC LC
    Format/Info                              : Advanced Audio Codec Low Complexity
    Codec ID                                 : A_AAC-2
    Duration                                 : 21 min 14 s
    Bit rate                                 : 96.0 kb/s
    Channel(s)                               : 1 channel
    Channel layout                           : C
    Sampling rate                            : 44.1 kHz
    Frame rate                               : 43.066 FPS (1024 SPF)
    Compression mode                         : Lossy
    Stream size                              : 14.6 MiB (7%)
    Title                                    : Telegram | Movieaio
    Writing library                          : Lavc58.54.100 libfdk_aac
    Language                                 : Hindi
    Default                                  : Yes
    Forced                                   : No




    SIMILAR

    TORRENT   UPLOADEDSIZESEEDS LEECHS
    Deadly Class - Season 1 - Mp4 x264 AC3 1080p by Truth4U 1 year 9.99 GB29 19
    Deadly Class Season 1 Complete 720p WEB-DL x264 [i_c] by ice_cracked 1 year 3.50 GB10 6
    First Class Anal 2 //Evil Angel// (2019) **(Split Scenes)** by jeet2 1 year 982.09 MB38 10
    First Class Euro Sluts [Red Light District]**Split Scenes** by NewPornUp 3 years 1.40 GB3 0
    Class of 83 (2020) Hindi 720p NF WEB-DL ⭐800 MB⭐ ESub 2CH x264 - Shadow (BonsaiHD) by kayl1337 1 month 788.85 MB851 196
    Super.Monsters.The.New.Class.2020.NF.WEB-DL.DDP5.1.x264-LAZY[TGx by sotnikam 1 week 339.78 MB12 1
    Super Monsters The New Class (2020) [720p] [WEBRip] [YTS.MX] by YIFY 1 week 225.94 MB581 85

    Torrent Hash: 651E7BE96D5F6D71F3246762D92E8D1C0FDE27BE


    Num Trackers: 10 trackers




    TRACKER'S LIST COMPATIBLE WITH BITTORRENT CLIENT


    TrackerSeedersLeechersCompletedUpdated
    udp://tracker.uw0.xyz:6969/announce 8 8 0 8 months
    http://bt2.archive.org:6969/announce 4 4 0 8 months
    https://tracker.opentracker.se:443/announce 12 16 0 8 months
    udp://tracker.sbsub.com:2710/announce 8 10 0 8 months
    udp://tracker.leechers-paradise.org:6969/announce 7 5 0 8 months
    udp://retracker.lanta-net.ru:2710/announce 2 9 0 8 months
    udp://tracker.zerobytes.xyz:1337/announce 4 5 0 8 months
    http://bt1.archive.org:6969/announce 0 8 0 8 months
    udp://p4p.arenabg.com:1337/announce 10 13 0 8 months
    udp://tracker.nyaa.uk:6969/announce 4 4 0 8 months

    No comments yet.