Corporate.Animals.2019.HDRip.XviD.AC3.LLG

seeders: 0     leechers: 0     updated: 1 week ago

Downloading Seeding from 0 peers
of -
0 b/s / 0 b/s

Warning! Use a VPN When Downloading Torrents.


Your IP Address is 3.228.24.192 Location is US.
Hide your IP ADDRESS with a VPN!

Get VPN App Mac Now!


    Corporate.Animals.2019.HDRip.XviD.AC3.LLG ( 1.18 GB )
    Sample.ts38.05 MB
    Corporate.Animals.2019.HDRip.XviD.AC3.LLG.mp41.14 GB

    By the way you can play this film on Mac with Elmedia Player

    quote:




    ******************************Thumbnail:**********************




    ******************************Screenshots:********************

    Screenshot 1

    Screenshot 2

    Screenshot 3

    Screenshot 4

    Screenshot 5

    Screenshot 6

    Screenshot 7

    Screenshot 8

    Screenshot 9

    Screenshot 0


    ***************************************************************
    General
    Corporate.Animals.2019.HDRip.XviD.AC3.LLG.mp4
    Format                                   : MPEG-4
    Format profile                           : Base Media
    Codec ID                                 : isom (isom/iso2/avc1/mp41)
    File size                                : 1.14 GiB
    Duration                                 : 1 h 25 min
    Overall bit rate mode                    : Variable
    Overall bit rate                         : 1 903 kb/s

    Video
    ID                                       : 1
    Format                                   : AVC
    Format/Info                              : Advanced Video Codec
    Format profile                           : [email protected]
    Format settings                          : CABAC / 1 Ref Frames
    Format settings, CABAC                   : Yes
    Format settings, Reference frames        : 1 frame
    Codec ID                                 : avc1
    Codec ID/Info                            : Advanced Video Coding
    Duration                                 : 1 h 25 min
    Bit rate mode                            : Variable
    Bit rate                                 : 1 516 kb/s
    Maximum bit rate                         : 4 500 kb/s
    Width                                    : 720 pixels
    Height                                   : 304 pixels
    Display aspect ratio                     : 2.35:1
    Frame rate mode                          : Constant
    Frame rate                               : 23.976 (23976/1000) FPS
    Color space                              : YUV
    Chroma subsampling                       : 4:2:0
    Bit depth                                : 8 bits
    Scan type                                : Progressive
    Bits/(Pixel*Frame)                       : 0.289
    Stream size                              : 931 MiB (80%)

    Audio
    ID                                       : 2
    Format                                   : AC-3
    Format/Info                              : Audio Coding 3
    Commercial name                          : Dolby Digital
    Codec ID                                 : ac-3
    Duration                                 : 1 h 25 min
    Bit rate mode                            : Constant
    Bit rate                                 : 384 kb/s
    Channel(s)                               : 6 channels
    Channel layout                           : L R C LFE Ls Rs
    Sampling rate                            : 48.0 kHz
    Frame rate                               : 31.250 FPS (1536 SPF)
    Bit depth                                : 16 bits
    Compression mode                         : Lossy
    Stream size                              : 236 MiB (20%)
    Title                                    : Surround
    Language                                 : English
    Service kind                             : Complete Main
    Default                                  : Yes


    ***************************************************************






    SIMILAR

    TORRENT   UPLOADEDSIZESEEDS LEECHS
    Corporate Season 2 Complete 720p WEB-DL x264 [i_c] by ice_cracked 7 months 1.94 GB16 4
    Corporate Season 1 Complete 720p HDTV x264 [i_c] by ice_cracked 1 year 2.11 GB27 9
    Lacuna Coil - Black Anima 2019ak by analogkid6103 1 week 106.65 MB27 2
    Lacuna Coil - Black Anima (2019) [320 KBPS] (pradyutvam) by pradyutvam 2 weeks 105.47 MB48 3
    Corporate.S01.UNCENSORED.1080p.WEBRip.AAC2.0.x264-QiQ by Supernova 9 months 4.98 GB4 4
    Lacuna Coil - Black Anima (Deluxe Edition) (2019) [pradyutvam] by pradyutvam 3 days 144.42 MB49 5
    Lacuna Coil - Black Anima (Bonus Tracks Version) (2019) by Freak0370 3 days 135.57 MB25 2

    Did not find anything about this torrent yet...


    Torrent Hash: C581BB6058761FEC1B751585A39AA06883F9351A

    No comments yet.