Crystal Inferno 2017 720p WEB-DL DD 5.1 x264

seeders: 6     leechers: 9     updated: 10 months ago

Downloading Seeding from 0 peers
of -
0 b/s / 0 b/s

Warning! Use a VPN When Downloading Torrents.


Your IP Address is 54.158.208.189 Location is US.
Hide your IP ADDRESS with a VPN!

Get VPN App Mac Now!


    Crystal Inferno 2017 720p WEB-DL DD 5.1 x264 ( 958.10 MB )
    Crystal Inferno 2017 720p WEB-DL DD 5.1 x264.mkv958.10 MB

    By the way you can play this film on Mac with Elmedia Player




    General
    Format                                   : Matroska
    Format version                           : Version 4 / Version 2
    File size                                : 958 MiB
    Duration                                 : 1 h 32 min
    Overall bit rate                         : 1 450 kb/s

    Video
    ID                                       : 1
    Format                                   : AVC
    Format/Info                              : Advanced Video Codec
    Format profile                           : [email protected]
    Format settings                          : CABAC / 4 Ref Frames
    Format settings, CABAC                   : Yes
    Format settings, RefFrames               : 4 frames
    Codec ID                                 : V_MPEG4/ISO/AVC
    Duration                                 : 1 h 32 min
    Bit rate                                 : 1 200 kb/s
    Width                                    : 1 280 pixels
    Height                                   : 718 pixels
    Display aspect ratio                     : 16:9
    Frame rate mode                          : Constant
    Frame rate                               : 23.976 (23976/1000) FPS
    Color space                              : YUV
    Chroma subsampling                       : 4:2:0
    Bit depth                                : 8 bits
    Scan type                                : Progressive
    Bits/(Pixel*Frame)                       : 0.054
    Stream size                              : 788 MiB (82%)
    Writing library                          : x264 core 148 r2643 5c65704
    Language                                 : English
    Default                                  : Yes
    Forced                                   : No

    Audio
    ID                                       : 2
    Format                                   : AC-3
    Format/Info                              : Audio Coding 3
    Format settings, Endianness              : Big
    Codec ID                                 : A_AC3
    Duration                                 : 1 h 32 min
    Bit rate mode                            : Constant
    Bit rate                                 : 256 kb/s
    Channel(s)                               : 6 channels
    Channel positions                        : Front: L C R, Side: L R, LFE
    Sampling rate                            : 48.0 kHz
    Frame rate                               : 31.250 FPS (1536 SPF)
    Bit depth                                : 16 bits
    Compression mode                         : Lossy
    Stream size                              : 169 MiB (18%)
    Language                                 : English
    Service kind                             : Complete Main
    Default                                  : Yes
    Forced                                   : No











    SIMILAR

    TORRENT   UPLOADEDSIZESEEDS LEECHS
    Crystal.Inferno.2017.720p.AMZN.WEB-DL.DD5.1.H.264-NTG[EtHD] by EtHD 4 months 2.20 GB8 0
    Crystal Inferno (2017) 720p BrRip x264 - YIFY by YIFY 3 months 789.75 MB246 57
    Crystal Inferno (2017) 1080p BrRip x264 - YIFY by YIFY 3 months 1.48 GB282 219
    Crystal Inferno 2017 HDRip.XviD.AC3-EVO by makintos13 11 months 1.40 GB1 5
    Crystal Inferno 2017 HDRip.XviD.AC3-EVO by xxxlavalxxx 11 months 1.40 GB21 8
    Crystal.Inferno.2017.1080p.AMZN.WEB-DL.DD5.1.H.264-NTG[EtHD] by EtHD 4 months 5.08 GB2 3
    Crystal.Inferno.2017.720p.WEB-DL.DD5.1.H264-FGT by makintos13 11 months 2.85 GB3 11

    Torrent Hash: E4E9A90063114D73F483E663AC9A4D23D54A25CF


    Num Trackers: 16 trackers




    TRACKER'S LIST COMPATIBLE WITH BITTORRENT CLIENT


    TrackerSeedersLeechersCompletedUpdated
    udp://eddie4.nl:6969 6 9 0 11 months
    udp://tracker.leechers-paradise.org:6969 4 2 0 11 months
    udp://9.rarbg.to:2710 3 7 0 11 months
    udp://p4p.arenabg.ch:1337 3 5 0 11 months
    udp://tracker.coppersurfer.tk:6969 3 3 0 11 months
    udp://tracker.opentrackr.org:1337 2 3 0 11 months
    udp://tracker.pirateparty.gr:6969/announce 2 2 0 10 months
    udp://tracker.coppersurfer.tk:6969/announce 1 3 0 10 months
    udp://tracker.zer0day.to:1337 1 3 0 11 months
    udp://tracker.leechers-paradise.org:6969/announce 1 2 0 10 months
    http://tracker.opentrackr.org:1337/announce 0 3 0 10 months
    http://www.opentrackr.org/announce 0 2 0 10 months
    udp://mgtracker.org:6969 0 0 0 11 months
    udp://asnet.pw:2710/announce 0 0 0 11 months
    http://tracker.mg64.net:6881/announce 0 0 0 11 months
    http://mgtracker.org:2710/announce 0 0 0 11 months

    No comments yet.