Daddy's Home.2.2017.WEB-DL.Rip.Russian.AC3.Audio.LLG

seeders: 6     leechers: 3     updated: 6 months ago
Uploaded by LifeLongg6093 , was 7 months ago, day 04/02/2018 01:47:48
Downloaded 173 times, 0.98 GB - 2 files , movies > WebDL


Warning! Use a VPN When Downloading Torrents.


Your IP Address is 54.196.42.8 Location is US.
Hide your IP ADDRESS with a VPN!

Get VPN App Mac Now!


    Daddy's Home.2.2017.WEB-DL.Rip.Russian.AC3.Audio.LLG ( 0.98 GB )
    Sample.ts5.30 MB
    Daddy's Home.2.2017.WEB-DL.Rip.Russian.AC3.Audio.LLG.mp40.98 GB

    By the way you can play this film on Mac with Elmedia Player

    ******************************Thumbnail:**********************



    ******************************Screenshots:********************

    Screenshot 1

    Screenshot 2

    Screenshot 3

    Screenshot 4

    Screenshot 5

    Screenshot 6

    Screenshot 7

    Screenshot 8

    Screenshot 9

    Screenshot 0

    **************************************************************

    Complete name                            : Daddy's Home.2.2017.WEB-DL.Rip.Russian.AC3.Audio.LLG.mp4
    Format                                   : MPEG-4
    Format profile                           : Base Media
    Codec ID                                 : isom (isom/iso2/avc1/mp41)
    File size                                : 1 003 MiB
    Duration                                 : 1 h 36 min
    Overall bit rate                         : 1 460 kb/s
    Writing application                      : Lavf57.56.101

    Video
    ID                                       : 1
    Format                                   : AVC
    Format/Info                              : Advanced Video Codec
    Format profile                           : [email protected]
    Format settings                          : CABAC / 4 Ref Frames
    Format settings, CABAC                   : Yes
    Format settings, RefFrames               : 4 frames
    Codec ID                                 : avc1
    Codec ID/Info                            : Advanced Video Coding
    Duration                                 : 1 h 36 min
    Bit rate                                 : 1 200 kb/s
    Width                                    : 720 pixels
    Height                                   : 400 pixels
    Display aspect ratio                     : 16:9
    Frame rate mode                          : Constant
    Frame rate                               : 23.976 (23976/1000) FPS
    Color space                              : YUV
    Chroma subsampling                       : 4:2:0
    Bit depth                                : 8 bits
    Scan type                                : Progressive
    Bits/(Pixel*Frame)                       : 0.174
    Stream size                              : 824 MiB (82%)

    Audio
    ID                                       : 2
    Format                                   : AC-3
    Format/Info                              : Audio Coding 3
    Codec ID                                 : ac-3
    Duration                                 : 1 h 36 min
    Bit rate mode                            : Constant
    Bit rate                                 : 256 kb/s
    Channel(s)                               : 2 channels
    Channel positions                        : Front: L R
    Sampling rate                            : 48.0 kHz
    Frame rate                               : 31.250 FPS (1536 SPF)
    Bit depth                                : 16 bits
    Compression mode                         : Lossy
    Stream size                              : 176 MiB (18%)
    Service kind                             : Complete Main
    Default                                  : Yes
    Alternate group                          : 1




    SIMILAR

    TORRENT   UPLOADEDSIZESEEDS LEECHS
    Daddy's Home (2015) 1080p BrRip x264 - YIFY by YIFY 2 years 1.46 GB54 3
    Daddy's Home (2015) 720p BrRip x264 - YIFY by YIFY 2 years 700.98 MB71 5
    Daddy's Home 2 (2017) 1080p BrRip x264 - YIFY by YIFY 6 months 1.51 GB3 196 1 204
    Daddy's Home 2 (2017) 720p BrRip x264 - YIFY by YIFY 6 months 725.26 MB3 720 934
    I.Love.When.Daddy.Cums.Home.iNTERNAL.XXX.720p.WEBRiP.MP4-GUSH by Borusssia 1 year 4.01 GB145 80
    PeterNorth.I.Love.When.Daddy.Cums.Home.BTS.XXX.1080p.MP4-KTR[... by juggs99 1 year 770.48 MB4 5
    Daddy's Home 2 (2017) WEB-DL Rip AC3 by makintos13 7 months 1.37 GB361 45

    Torrent Hash: 0D773E41EEA277C5919937E796A26F2478A1B864


    Num Trackers: 15 trackers




    TRACKER'S LIST COMPATIBLE WITH BITTORRENT CLIENT


    TrackerSeedersLeechersCompletedUpdated
    udp://tracker.coppersurfer.tk:6969/announce 6 3 0 6 months
    udp://tracker.opentrackr.org:1337 5 5 0 7 months
    udp://tracker.leechers-paradise.org:6969 4 8 0 7 months
    udp://eddie4.nl:6969 4 1 0 7 months
    udp://tracker.leechers-paradise.org:6969/announce 3 3 0 6 months
    udp://p4p.arenabg.ch:1337 3 3 0 7 months
    udp://tracker.zer0day.to:1337 3 1 0 7 months
    udp://mgtracker.org:6969 3 1 0 7 months
    udp://9.rarbg.to:2710 3 0 0 7 months
    udp://public.popcorn-tracker.org:6969 2 2 0 7 months
    http://p4p.arenabg.ch:1337/announce 1 3 0 6 months
    udp://p4p.arenabg.ch:1337/announce 1 3 0 6 months
    udp://tracker.zer0day.to:1337/announce 1 3 0 6 months
    udp://tracker.coppersurfer.tk:6969 0 2 0 7 months
    http://tracker.mg64.net:6881/announce 0 0 0 7 months

    No comments yet.