Den.of.Thieves.2018.720p.HD-TS X264.MP3.128kbps.LLG

seeders: 20     leechers: 6     updated: 7 months ago
Uploaded by LifeLongg6928 , was 8 months ago, day 04/02/2018 22:51:58
Downloaded 149 times, 1.28 GB - 2 files , movies > DVDRip


Warning! Use a VPN When Downloading Torrents.


Your IP Address is 54.158.52.166 Location is US.
Hide your IP ADDRESS with a VPN!

Get VPN App Mac Now!


    Den.of.Thieves.2018.720p.HD-TS X264.MP3.128kbps.LLG ( 1.28 GB )
    Sample.ts15.18 MB
    Den.of.Thieves.2018.720p.HD-TS X264.MP3.128kbps.LLG.mp41.26 GB

    By the way you can play this film on Mac with Elmedia Player

    ******************************Thumbnail:**********************



    ******************************Screenshots:********************

    Screenshot 1

    Screenshot 2

    Screenshot 3

    Screenshot 4

    Screenshot 5

    Screenshot 6

    Screenshot 7

    Screenshot 8

    Screenshot 9

    Screenshot 0

    **************************************************************

    Complete name                            : Den.of.Thieves.2018.720p.HD-TS X264.MP3.128kbps.LLG.mp4
    Format                                   : MPEG-4
    Format profile                           : Base Media
    Codec ID                                 : isom (isom/iso2/avc1/mp41)
    File size                                : 1.26 GiB
    Duration                                 : 2 h 16 min
    Overall bit rate                         : 1 329 kb/s
    Writing application                      : Lavf57.56.101

    Video
    ID                                       : 1
    Format                                   : AVC
    Format/Info                              : Advanced Video Codec
    Format profile                           : [email protected]
    Format settings                          : CABAC / 4 Ref Frames
    Format settings, CABAC                   : Yes
    Format settings, RefFrames               : 4 frames
    Codec ID                                 : avc1
    Codec ID/Info                            : Advanced Video Coding
    Duration                                 : 2 h 16 min
    Source duration                          : 2 h 16 min
    Bit rate                                 : 1 200 kb/s
    Width                                    : 1 264 pixels
    Height                                   : 544 pixels
    Display aspect ratio                     : 2.35:1
    Frame rate mode                          : Constant
    Frame rate                               : 23.976 (23976/1000) FPS
    Color space                              : YUV
    Chroma subsampling                       : 4:2:0
    Bit depth                                : 8 bits
    Scan type                                : Progressive
    Bits/(Pixel*Frame)                       : 0.073
    Stream size                              : 1.13 GiB (90%)
    Source stream size                       : 1.13 GiB (90%)

    Audio
    ID                                       : 2
    Format                                   : MPEG Audio
    Format version                           : Version 1
    Format profile                           : Layer 3
    Format settings                          : Joint stereo / MS Stereo
    Codec ID                                 : mp4a-6B
    Duration                                 : 2 h 16 min
    Bit rate mode                            : Constant
    Bit rate                                 : 128 kb/s
    Channel(s)                               : 2 channels
    Sampling rate                            : 44.1 kHz
    Compression mode                         : Lossy
    Stream size                              : 125 MiB (10%)
    Writing library                          : LAME3.99.5
    Default                                  : Yes
    Alternate group                          : 1




    SIMILAR

    TORRENT   UPLOADEDSIZESEEDS LEECHS
    Nothing But Thieves - Broken Machine (Deluxe) (2017) [320kbps] by kajalsus 1 year 133.37 MB53 4
    Den.of.Thieves.2018.Unrated.Bluray.1080p.DTS-HD.x264-Grym by vonRicht 5 months 19.16 GB49 142
    Den.of.Thieves.2018.HDRip.XviD.AC3-EVO by xxxlavalxxx 5 months 1.52 GB436 265
    Den.of.Thieves.2018.HDRip.XviD.AC3-EVO by TvTeam 5 months 1.52 GB33 21
    Den.of.Thieves.2018.1080p.Blu-ray.HEVC.AAC.5.1-DTOne by SaM 5 months 1.65 GB31 32
    Den.of.Thieves.2018.1080p.Blu-ray.x264.DTS-HD.MA.5.1-DTOne by SaM 5 months 14.53 GB12 22
    Den.Of.Thieves.2018.UNRATED.BDRip.x264-DRONES[EtMovies] by EtHD 5 months 864.11 MB1 3

    Torrent Hash: 91782740500C6AD501565DF5107CED04C6F3A10E


    Num Trackers: 5 trackers




    TRACKER'S LIST COMPATIBLE WITH BITTORRENT CLIENT


    TrackerSeedersLeechersCompletedUpdated
    udp://tracker.coppersurfer.tk:6969/announce 20 6 0 7 months
    udp://tracker.zer0day.to:1337/announce 18 9 0 7 months
    udp://tracker.leechers-paradise.org:6969/announce 18 9 0 7 months
    http://p4p.arenabg.ch:1337/announce 14 4 0 7 months
    udp://p4p.arenabg.ch:1337/announce 10 6 0 7 months

    No comments yet.