Den of Thieves 2018 720p WEB-DL x264 [MW]

seeders: 6     leechers: 6     updated: 5 months ago
Uploaded by MovieFreak11602 , was 5 months ago, day 10/04/2018 08:20:11
Downloaded 106 times, 1.07 GB - 1 file , movies > WebDL


Warning! Use a VPN When Downloading Torrents.


Your IP Address is 54.158.52.166 Location is US.
Hide your IP ADDRESS with a VPN!

Get VPN App Mac Now!


    Den of Thieves 2018 720p WEB-DL x264 [MW] ( 1.07 GB )
    Den of Thieves 2018 720p WEB-DL x264 [MW].mkv1.07 GB

    By the way you can play this film on Mac with Elmedia Player





    General
    Format                                   : Matroska
    Format version                           : Version 4 / Version 2
    File size                                : 1.07 GiB
    Duration                                 : 2 h 20 min
    Overall bit rate                         : 1 097 kb/s

    Video
    ID                                       : 1
    Format                                   : AVC
    Format/Info                              : Advanced Video Codec
    Format profile                           : [email protected]
    Format settings                          : CABAC / 4 Ref Frames
    Format settings, CABAC                   : Yes
    Format settings, RefFrames               : 4 frames
    Codec ID                                 : V_MPEG4/ISO/AVC
    Duration                                 : 2 h 20 min
    Bit rate                                 : 1 000 kb/s
    Width                                    : 1 280 pixels
    Height                                   : 530 pixels
    Display aspect ratio                     : 2.40:1
    Frame rate mode                          : Constant
    Frame rate                               : 23.976 (24000/1001) FPS
    Color space                              : YUV
    Chroma subsampling                       : 4:2:0
    Bit depth                                : 8 bits
    Scan type                                : Progressive
    Bits/(Pixel*Frame)                       : 0.061
    Stream size                              : 1 002 MiB (91%)
    Writing library                          : x264 core 155 r2893 b00bcaf
    Default                                  : Yes
    Forced                                   : No

    Audio
    ID                                       : 2
    Format                                   : AAC
    Format/Info                              : Advanced Audio Codec
    Format profile                           : HE-AAC / LC
    Format settings                          : Explicit
    Codec ID                                 : A_AAC-2
    Duration                                 : 2 h 20 min
    Bit rate                                 : 96.0 kb/s
    Channel(s)                               : 2 channels
    Channel positions                        : Front: L R
    Sampling rate                            : 48.0 kHz / 24.0 kHz
    Frame rate                               : 23.438 FPS (1024 SPF)
    Compression mode                         : Lossy
    Stream size                              : 94.8 MiB (9%)
    Language                                 : English
    Default                                  : Yes
    Forced                                   : No

    Menu
    00:00:00.000                             : en:1
    00:09:15.055                             : en:2
    00:18:58.012                             : en:3
    00:31:49.074                             : en:4
    00:38:14.042                             : en:5
    00:48:11.013                             : en:6
    00:58:05.065                             : en:7
    01:08:43.077                             : en:8
    01:16:23.996                             : en:9
    01:26:19.007                             : en:10
    01:41:35.047                             : en:11
    01:49:42.993                             : en:12
    02:08:22.028                             : en:13





    https://pichub.site/image/J2Dot
    https://pichub.site/image/J27Vp
    https://pichub.site/image/J2VUy
    https://pichub.site/image/J2c1b
    https://pichub.site/image/J2yKV
    https://pichub.site/image/J2wR0





    SIMILAR

    TORRENT   UPLOADEDSIZESEEDS LEECHS
    Nothing But Thieves - Broken Machine (Deluxe) (2017) [320kbps] by kajalsus 1 year 133.37 MB53 4
    Den.of.Thieves.2018.Unrated.Bluray.1080p.DTS-HD.x264-Grym by vonRicht 5 months 19.16 GB49 142
    Den.of.Thieves.2018.HDRip.XviD.AC3-EVO by xxxlavalxxx 5 months 1.52 GB436 265
    Den.of.Thieves.2018.HDRip.XviD.AC3-EVO by TvTeam 5 months 1.52 GB33 21
    Den.of.Thieves.2018.1080p.Blu-ray.HEVC.AAC.5.1-DTOne by SaM 5 months 1.65 GB31 32
    Den.of.Thieves.2018.1080p.Blu-ray.x264.DTS-HD.MA.5.1-DTOne by SaM 5 months 14.53 GB12 22
    Den.Of.Thieves.2018.UNRATED.BDRip.x264-DRONES[EtMovies] by EtHD 5 months 864.11 MB1 3

    Torrent Hash: 9616173EE771A788F1D3E7E9B7F2AE1613D905E5


    Num Trackers: 3 trackers




    TRACKER'S LIST COMPATIBLE WITH BITTORRENT CLIENT


    TrackerSeedersLeechersCompletedUpdated
    http://public.popcorn-tracker.org:6969/announce 6 6 0 5 months
    http://191.96.249.23:6969/announce 6 5 0 5 months
    http://bt.xxx-tracker.com:2710/announce 1 0 0 5 months

    No comments yet.