Den.of.Thieves.2018.HDCAM.x264.Clean.Audio.LLG

seeders: 8     leechers: 7     updated: 9 months ago

Downloading Seeding from 0 peers
of -
0 b/s / 0 b/s

Warning! Use a VPN When Downloading Torrents.


Your IP Address is 54.198.55.167 Location is US.
Hide your IP ADDRESS with a VPN!

Get VPN App Mac Now!


    Den.of.Thieves.2018.HDCAM.x264.Clean.Audio.LLG ( 994.09 MB )
    Sample.mp410.07 MB
    Den.of.Thieves.2018.HDCAM.x264.Clean.Audio.LLG.mp4984.03 MB

    By the way you can play this film on Mac with Elmedia Player

    ******************************Thumbnail:**********************



    ******************************Screenshots:********************

    Screenshot 1

    Screenshot 2

    Screenshot 3

    Screenshot 4

    Screenshot 5

    Screenshot 6

    Screenshot 7

    Screenshot 8

    Screenshot 9

    Screenshot 0

    **************************************************************

    Complete name                            : Den.of.Thieves.2018.HDCAM.x264.Clean.Audio.LLG.mp4
    Format                                   : MPEG-4
    Format profile                           : Base Media
    Codec ID                                 : isom (isom/iso2/avc1/mp41)
    File size                                : 984 MiB
    Duration                                 : 2 h 13 min
    Overall bit rate mode                    : Variable
    Overall bit rate                         : 1 033 kb/s
    Writing application                      : Lavf57.56.101

    Video
    ID                                       : 1
    Format                                   : AVC
    Format/Info                              : Advanced Video Codec
    Format profile                           : [email protected]
    Format settings                          : CABAC / 4 Ref Frames
    Format settings, CABAC                   : Yes
    Format settings, RefFrames               : 4 frames
    Codec ID                                 : avc1
    Codec ID/Info                            : Advanced Video Coding
    Duration                                 : 2 h 13 min
    Bit rate                                 : 900 kb/s
    Width                                    : 720 pixels
    Height                                   : 280 pixels
    Display aspect ratio                     : 2.571
    Frame rate mode                          : Constant
    Frame rate                               : 29.970 (29970/1000) FPS
    Color space                              : YUV
    Chroma subsampling                       : 4:2:0
    Bit depth                                : 8 bits
    Scan type                                : Progressive
    Bits/(Pixel*Frame)                       : 0.149
    Stream size                              : 856 MiB (87%)

    Audio
    ID                                       : 2
    Format                                   : AAC
    Format/Info                              : Advanced Audio Codec
    Format profile                           : LC
    Codec ID                                 : mp4a-40-2
    Duration                                 : 2 h 13 min
    Bit rate mode                            : Variable
    Bit rate                                 : 125 kb/s
    Maximum bit rate                         : 128 kb/s
    Channel(s)                               : 2 channels
    Channel positions                        : Front: L R
    Sampling rate                            : 48.0 kHz
    Frame rate                               : 46.875 FPS (1024 SPF)
    Compression mode                         : Lossy
    Stream size                              : 119 MiB (12%)
    Language                                 : den
    Default                                  : Yes
    Alternate group                          : 1




    SIMILAR

    TORRENT   UPLOADEDSIZESEEDS LEECHS
    Nothing But Thieves - Broken Machine (Deluxe) (2017) [320kbps] by kajalsus 1 year 133.37 MB53 4
    Den.of.Thieves.2018.Unrated.Bluray.1080p.DTS-HD.x264-Grym by vonRicht 6 months 19.16 GB49 142
    Den.of.Thieves.2018.HDRip.XviD.AC3-EVO by xxxlavalxxx 6 months 1.52 GB436 265
    Den.of.Thieves.2018.HDRip.XviD.AC3-EVO by TvTeam 6 months 1.52 GB33 21
    Den.of.Thieves.2018.1080p.Blu-ray.HEVC.AAC.5.1-DTOne by SaM 6 months 1.65 GB31 32
    Den.of.Thieves.2018.1080p.Blu-ray.x264.DTS-HD.MA.5.1-DTOne by SaM 6 months 14.53 GB12 22
    Den.Of.Thieves.2018.UNRATED.BDRip.x264-DRONES[EtMovies] by EtHD 6 months 864.11 MB1 3

    Torrent Hash: 127E8660B27C71224EFD39AA333CE0E90E17A56E


    Num Trackers: 6 trackers




    TRACKER'S LIST COMPATIBLE WITH BITTORRENT CLIENT


    TrackerSeedersLeechersCompletedUpdated
    http://opentrackr.org/announce 8 7 0 9 months
    udp://tracker.zer0day.to:1337/announce 7 4 0 9 months
    udp://tracker.leechers-paradise.org:6969/announce 6 6 0 9 months
    udp://tracker.pirateparty.gr:6969/announce 3 3 0 9 months
    udp://tracker.coppersurfer.tk:6969/announce 2 4 0 9 months
    udp://tracker.vanitycore.co:6969/announce 1 0 0 9 months

    No comments yet.