Den of Thieves (2018) Movie HDRip x264 AC3 by Full4movies.mp4

seeders: 100     leechers: 41     updated: 4 months ago
Uploaded by mimranjamil3443 , was 4 months ago, day 10/04/2018 05:43:08
Downloaded 126 times, 582.93 MB - 1 file , movies > DVDRip


Warning! Use a VPN When Downloading Torrents.


Your IP Address is 54.225.55.174 Location is US.
Hide your IP ADDRESS with a VPN!

Get VPN App Mac Now!


    Den of Thieves (2018) Movie HDRip x264 AC3 by Full4movies.mp4 ( 582.93 MB )
    Den of Thieves (2018) Movie HDRip x264 AC3 by Full4movies.mp4582.93 MB

    By the way you can play this film on Mac with Elmedia Player



    General
    Complete name                  : Den of Thieves (2018) Movie HDRip x264 AC3 by Full4movies.mp4
    Format                         : MPEG-4
    Format profile                 : Base Media
    Codec ID                       : isom (isom/iso2/avc1/mp41)
    File size                      : 583 MiB
    Duration                       : 2 h 20 min
    Overall bit rate               : 582 kb/s
    Movie name                     : Den of Thieves (2018) - www.Full4movies.co
    Writing application            : Lavf57.83.100

    Video
    ID                             : 1
    Format                         : AVC
    Format/Info                    : Advanced Video Codec
    Format profile                 : [email protected]
    Format settings, CABAC         : Yes
    Format settings, RefFrames     : 5 frames
    Codec ID                       : avc1
    Codec ID/Info                  : Advanced Video Coding
    Duration                       : 2 h 20 min
    Source duration                : 25 min 29 s
    Bit rate                       : 512 kb/s
    Width                          : 720 pixels
    Height                         : 304 pixels
    Display aspect ratio           : 2.35:1
    Frame rate mode                : Constant
    Frame rate                     : 23.976 FPS
    Color space                    : YUV
    Chroma subsampling             : 4:2:0
    Bit depth                      : 8 bits
    Scan type                      : Progressive
    Bits/(Pixel*Frame)             : 0.098
    Stream size                    : 514 MiB (88%)
    Source stream size             : 514 MiB (88%)
    Writing library                : x264 core 148 r2643 5c65704
    mdhd_Duration                  : 8401114

    Audio
    ID                             : 2
    Format                         : AAC
    Format/Info                    : Advanced Audio Codec
    Format profile                 : LC
    Codec ID                       : 40
    Duration                       : 2 h 20 min
    Duration_LastFrame             : -11 ms
    Bit rate mode                  : Constant
    Bit rate                       : 64.8 kb/s
    Channel(s)                     : 2 channels
    Channel positions              : Front: L R
    Sampling rate                  : 48.0 kHz
    Frame rate                     : 46.875 FPS (1024 SPF)
    Compression mode               : Lossy
    Stream size                    : 64.9 MiB (11%)
    Default                        : Yes
    Alternate group                : 1

    Screen Shoots



    SIMILAR

    TORRENT   UPLOADEDSIZESEEDS LEECHS
    Nothing But Thieves - Broken Machine (Deluxe) (2017) [320kbps] by kajalsus 1 year 133.37 MB53 4
    Den.of.Thieves.2018.Unrated.Bluray.1080p.DTS-HD.x264-Grym by vonRicht 4 months 19.16 GB49 142
    Den.of.Thieves.2018.HDRip.XviD.AC3-EVO by xxxlavalxxx 4 months 1.52 GB436 265
    Den.of.Thieves.2018.HDRip.XviD.AC3-EVO by TvTeam 4 months 1.52 GB33 21
    Den.of.Thieves.2018.1080p.Blu-ray.x264.DTS-HD.MA.5.1-DTOne by SaM 4 months 14.53 GB12 22
    Den.of.Thieves.2018.1080p.Blu-ray.HEVC.AAC.5.1-DTOne by SaM 4 months 1.65 GB31 32
    Den.Of.Thieves.2018.UNRATED.BDRip.x264-DRONES[EtMovies] by EtHD 4 months 864.11 MB1 3

    Torrent Hash: 43675A1E1070356B9CB6CEC5C21E37B90F600295


    Num Trackers: 10 trackers




    TRACKER'S LIST COMPATIBLE WITH BITTORRENT CLIENT


    TrackerSeedersLeechersCompletedUpdated
    udp://tracker.coppersurfer.tk:6969 100 41 0 4 months
    udp://tracker.leechers-paradise.org:6969 77 47 0 4 months
    http://mgtracker.org:2710/announce 50 10 0 4 months
    http://tracker.mg64.net:6881/announce 39 10 0 4 months
    udp://tracker.opentrackr.org:1337 31 63 0 4 months
    http://191.96.249.23:6969/announce 8 4 0 4 months
    http://public.popcorn-tracker.org:6969/announce 7 4 0 4 months
    http://bt.xxx-tracker.com:2710/announce 1 0 0 4 months
    http://open.acgtracker.com:1096/announce 1 0 0 4 months
    http://announce.xxx-tracker.com:2710/announce 0 0 0 4 months

    No comments yet.