Den.of.Thieves.2018.NEW.720p.HD-TS.x264 AAC.LLG

seeders: 104     leechers: 85     updated: 7 months ago
Uploaded by LifeLongg6913 , was 7 months ago, day 26/02/2018 10:37:26
Downloaded 104 times, 1.21 GB - 2 files , movies > TS


Warning! Use a VPN When Downloading Torrents.


Your IP Address is 54.166.141.69 Location is US.
Hide your IP ADDRESS with a VPN!

Get VPN App Mac Now!


    Den.of.Thieves.2018.NEW.720p.HD-TS.x264 AAC.LLG ( 1.21 GB )
    Sample.mp414.90 MB
    Den.of.Thieves.2018.NEW.720p.HD-TS.x264 AAC.LLG.mp41.20 GB

    By the way you can play this film on Mac with Elmedia Player

    ******************************Thumbnail:**********************



    ******************************Screenshots:********************

    Screenshot 1

    Screenshot 2

    Screenshot 3

    Screenshot 4

    Screenshot 5

    Screenshot 6

    Screenshot 7

    Screenshot 8

    Screenshot 9

    Screenshot 0

    **************************************************************

    Complete name                            : Den.of.Thieves.2018.NEW.720p.HD-TS.x264 AAC.LLG.mp4
    Format                                   : MPEG-4
    Format profile                           : Base Media
    Codec ID                                 : isom (isom/iso2/avc1/mp41)
    File size                                : 1.20 GiB
    Duration                                 : 2 h 16 min
    Overall bit rate                         : 1 262 kb/s
    Writing application                      : Lavf57.56.101

    Video
    ID                                       : 1
    Format                                   : AVC
    Format/Info                              : Advanced Video Codec
    Format profile                           : [email protected]
    Format settings                          : CABAC / 4 Ref Frames
    Format settings, CABAC                   : Yes
    Format settings, RefFrames               : 4 frames
    Codec ID                                 : avc1
    Codec ID/Info                            : Advanced Video Coding
    Duration                                 : 2 h 16 min
    Bit rate                                 : 1 200 kb/s
    Width                                    : 1 264 pixels
    Height                                   : 544 pixels
    Display aspect ratio                     : 2.35:1
    Frame rate mode                          : Constant
    Frame rate                               : 24.000 FPS
    Color space                              : YUV
    Chroma subsampling                       : 4:2:0
    Bit depth                                : 8 bits
    Scan type                                : Progressive
    Bits/(Pixel*Frame)                       : 0.073
    Stream size                              : 1.13 GiB (94%)

    Audio
    ID                                       : 2
    Format                                   : AAC
    Format/Info                              : Advanced Audio Codec
    Format profile                           : LC
    Codec ID                                 : mp4a-40-2
    Duration                                 : 2 h 16 min
    Bit rate mode                            : Constant
    Bit rate                                 : 64.7 kb/s
    Channel(s)                               : 2 channels
    Channel positions                        : Front: L R
    Sampling rate                            : 44.1 kHz
    Frame rate                               : 43.066 FPS (1024 SPF)
    Compression mode                         : Lossy
    Stream size                              : 62.9 MiB (5%)
    Language                                 : English
    Default                                  : Yes
    Alternate group                          : 1




    SIMILAR

    TORRENT   UPLOADEDSIZESEEDS LEECHS
    Nothing But Thieves - Broken Machine (Deluxe) (2017) [320kbps] by kajalsus 1 year 133.37 MB53 4
    Den.of.Thieves.2018.Unrated.Bluray.1080p.DTS-HD.x264-Grym by vonRicht 5 months 19.16 GB49 142
    Den.of.Thieves.2018.HDRip.XviD.AC3-EVO by xxxlavalxxx 5 months 1.52 GB436 265
    Den.of.Thieves.2018.HDRip.XviD.AC3-EVO by TvTeam 5 months 1.52 GB33 21
    Den.of.Thieves.2018.1080p.Blu-ray.HEVC.AAC.5.1-DTOne by SaM 5 months 1.65 GB31 32
    Den.of.Thieves.2018.1080p.Blu-ray.x264.DTS-HD.MA.5.1-DTOne by SaM 5 months 14.53 GB12 22
    Den.Of.Thieves.2018.UNRATED.BDRip.x264-DRONES[EtMovies] by EtHD 5 months 864.11 MB1 3

    Torrent Hash: 5807D139B8B783C0C4602CE40E398D9D62D3FA6E


    Num Trackers: 17 trackers




    TRACKER'S LIST COMPATIBLE WITH BITTORRENT CLIENT


    TrackerSeedersLeechersCompletedUpdated
    udp://tracker.opentrackr.org:1337 104 85 0 7 months
    udp://tracker.coppersurfer.tk:6969 81 92 0 7 months
    udp://tracker.coppersurfer.tk:6969/announce 76 24 0 7 months
    http://opentrackr.org:1337/announce 65 50 0 7 months
    udp://tracker.zer0day.to:1337/announce 58 29 0 7 months
    udp://tracker.open-internet.nl:6969/announce 44 27 0 7 months
    udp://tracker.leechers-paradise.org:6969/announce 36 24 0 7 months
    udp://tracker.zer0day.to:1337 23 37 0 7 months
    udp://tracker.leechers-paradise.org:6969 23 21 0 7 months
    http://tracker.mg64.net:6881/announce 6 18 0 7 months
    http://mgtracker.org:2710/announce 6 17 0 7 months
    udp://inferno.demonoid.pw:3399/announce 5 3 0 7 months
    udp://public.popcorn-tracker.org:6969 4 18 0 7 months
    http://announce.xxx-tracker.com:2710/announce 1 22 0 7 months
    udp://asnet.pw:2710/announce 0 0 0 7 months
    udp://9.rarbg.to:2710 0 0 0 7 months
    udp://p4p.arenabg.ch:1337 0 0 0 7 months

    No comments yet.