Disobedience (2018) 720p HDRip x264 AAC by Full4movies

seeders: 5     leechers: 1     updated: 2 months ago
Uploaded by mimranjamil3693 , was 2 months ago, day 05/07/2018 14:48:41
Downloaded 148 times, 1.09 GB - 1 file , movies > BDRip


Warning! Use a VPN When Downloading Torrents.


Your IP Address is 54.198.23.251 Location is US.
Hide your IP ADDRESS with a VPN!

Get VPN App Mac Now!


    Disobedience (2018) 720p HDRip x264 AAC by Full4movies ( 1.09 GB )
    Disobedience (2018) 720p HDRip x264 AAC by Full4movies.mkv1.09 GB

    By the way you can play this film on Mac with Elmedia Player



    General
    Complete name                  : Disobedience (2018) 720p HDRip x264 AAC by Full4movies.mkv
    Format                         : Matroska
    Format version                 : Version 4 / Version 2
    File size                      : 1.09 GiB
    Duration                       : 1 h 54 min
    Overall bit rate               : 1 364 kb/s
    Movie name                     : www.Full4movies.co
    Encoded date                   : UTC 2018-07-05 09:00:14
    Writing application            : mkvmerge v8.1.0 ('Psychedelic Postcard') 32bit
    Writing library                : libebml v1.3.1 + libmatroska v1.4.2

    Video
    ID                             : 1
    Format                         : AVC
    Format/Info                    : Advanced Video Codec
    Format profile                 : [email protected]
    Format settings, CABAC         : Yes
    Format settings, RefFrames     : 5 frames
    Codec ID                       : V_MPEG4/ISO/AVC
    Duration                       : 1 h 54 min
    Bit rate                       : 1 152 kb/s
    Width                          : 1 280 pixels
    Height                         : 536 pixels
    Display aspect ratio           : 2.40:1
    Frame rate mode                : Constant
    Frame rate                     : 23.976 (23976/1000) FPS
    Color space                    : YUV
    Chroma subsampling             : 4:2:0
    Bit depth                      : 8 bits
    Scan type                      : Progressive
    Bits/(Pixel*Frame)             : 0.070
    Stream size                    : 933 MiB (83%)
    Writing library                : x264 core 148 r2643 5c65704
    Default                        : Yes
    Forced                         : No

    Audio
    ID                             : 2
    Format                         : AAC
    Format/Info                    : Advanced Audio Codec
    Format profile                 : LC
    Codec ID                       : A_AAC
    Duration                       : 1 h 54 min
    Bit rate                       : 224 kb/s
    Channel(s)                     : 6 channels
    Channel positions              : Front: L C R, Side: L R, LFE
    Sampling rate                  : 48.0 kHz
    Frame rate                     : 46.875 FPS (1024 SPF)
    Compression mode               : Lossy
    Delay relative to video        : -43 ms
    Stream size                    : 184 MiB (16%)
    Language                       : English
    Default                        : Yes
    Forced                         : No

    Screen Shoots



    SIMILAR

    TORRENT   UPLOADEDSIZESEEDS LEECHS
    Disobedience.2017.720p.BluRay.x264-x0r by Supernova 2 months 2.50 GB8 5
    Disobedience.2017.720p.BluRay.x264-DRONES[EtHD] by EtHD 2 months 5.52 GB30 21
    Disobedience.2017.BDRip.x264-DRONES[EtMovies] by EtHD 2 months 446.15 MB22 21
    Disobedience.2018.BRRip.XviD.AC3-EVO by TvTeam 2 months 1.43 GB18 6
    Disobedience.2017.1080p.BluRay.x264-DRONES[EtHD] by EtHD 2 months 8.83 GB36 36
    Disobedience.2018.BRRip.XviD.AC3-EVO[EtMovies] by EtHD 2 months 1.43 GB149 43
    Disobedience (2017) 720p BrRip x264 - YIFY by YIFY 2 months 965.89 MB1 408 654

    Torrent Hash: 10304C578890EBF65EBAA64172E7C7EBF33AC0A7


    Num Trackers: 6 trackers




    TRACKER'S LIST COMPATIBLE WITH BITTORRENT CLIENT


    TrackerSeedersLeechersCompletedUpdated
    udp://tracker.opentrackr.org:1337 5 1 0 2 months
    udp://thetracker.org:80/announce 1 0 0 2 months
    http://mgtracker.org:2710/announce 0 2 0 2 months
    http://tracker.mg64.net:6881/announce 0 0 0 2 months
    udp://tracker.leechers-paradise.org:6969 0 0 0 2 months
    udp://tracker.coppersurfer.tk:6969 0 0 0 2 months

    No comments yet.