Dora and the Lost City of Gold.2019.BRRip.XviD.AC3.LLG

seeders: 24     leechers: 19     updated: 2 weeks ago

Downloading Seeding from 0 peers
of -
0 b/s / 0 b/s
    Dora and the Lost City of Gold.2019.BRRip.XviD.AC3.LLG ( 1.19 GB )
    Sample.ts56.73 MB
    Dora and the Lost City of Gold.2019.BRRip.XviD.AC3.LLG.mp41.13 GB

    quote:




    ******************************Thumbnail:**********************




    ******************************Screenshots:********************

    Screenshot 1

    Screenshot 2

    Screenshot 3

    Screenshot 4

    Screenshot 5

    Screenshot 6

    Screenshot 7

    Screenshot 8

    Screenshot 9

    Screenshot 0

    **********************************************************
    General
    Dora and the Lost City of Gold.2019.BRRip.XviD.AC3.LLG.mp4
    Format                                   : MPEG-4
    Format profile                           : Base Media
    Codec ID                                 : isom (isom/iso2/avc1/mp41)
    File size                                : 1.13 GiB
    Duration                                 : 1 h 42 min
    Overall bit rate mode                    : Variable
    Overall bit rate                         : 1 583 kb/s
    Writing application                      : Lavf57.83.100

    Video
    ID                                       : 1
    Format                                   : AVC
    Format/Info                              : Advanced Video Codec
    Format profile                           : [email protected]
    Format settings                          : CABAC / 1 Ref Frames
    Format settings, CABAC                   : Yes
    Format settings, Reference frames        : 1 frame
    Codec ID                                 : avc1
    Codec ID/Info                            : Advanced Video Coding
    Duration                                 : 1 h 42 min
    Bit rate mode                            : Variable
    Bit rate                                 : 1 195 kb/s
    Maximum bit rate                         : 3 600 kb/s
    Width                                    : 720 pixels
    Height                                   : 406 pixels
    Display aspect ratio                     : 16:9
    Frame rate mode                          : Constant
    Frame rate                               : 23.976 (23976/1000) FPS
    Color space                              : YUV
    Chroma subsampling                       : 4:2:0
    Bit depth                                : 8 bits
    Scan type                                : Progressive
    Bits/(Pixel*Frame)                       : 0.171
    Stream size                              : 876 MiB (76%)
    Codec configuration box                  : avcC

    Audio
    ID                                       : 2
    Format                                   : AC-3
    Format/Info                              : Audio Coding 3
    Commercial name                          : Dolby Digital
    Codec ID                                 : ac-3
    Duration                                 : 1 h 42 min
    Bit rate mode                            : Constant
    Bit rate                                 : 384 kb/s
    Channel(s)                               : 6 channels
    Channel layout                           : L R C LFE Ls Rs
    Sampling rate                            : 48.0 kHz
    Frame rate                               : 31.250 FPS (1536 SPF)
    Compression mode                         : Lossy
    Stream size                              : 281 MiB (24%)
    Title                                    : Surround
    Language                                 : English
    Service kind                             : Complete Main
    Default                                  : Yes
    Alternate group                          : 1


    **********************************************************






    SIMILAR

    TORRENT   UPLOADEDSIZESEEDS LEECHS
    [JacquieEtMichelTV]Dora - Adorable Dora, 24ans ! [ mp4] by NewPornUp 2 years 409.51 MB25 6
    [Anal-Angels] Dora C (16-06-2015) by chkm8te 4 years 550.90 MB1 0
    Dora Venter's Fuck Me by andy1966 1 year 1.96 GB1 1
    [TeenSexMovs] Dora C (01.13.2015) by chkm8te 5 years 149.85 MB0 0
    [TrickyMasseur TeenMegaWorld] Dora C aka Karina Grand - Blond... by NewPornUp 2 years 744.67 MB6 1
    Dora.and.the.Lost.City.of.Gold.2019.BDRip.x264-DRONES by TvTeam 3 weeks 764.27 MB5 0
    [FirstBGG] Dora, Sarena (01.31.2015) by chkm8te 5 years 230.86 MB0 1

    Torrent Hash: A8D64C4814EF2B76E680021B2C7E2048142DB08D


    Num Trackers: 6 trackers




    TRACKER'S LIST COMPATIBLE WITH BITTORRENT CLIENT


    TrackerSeedersLeechersCompletedUpdated
    http://bt2.archive.org:6969/announce 1 0 0 2 weeks
    udp://tracker.coppersurfer.tk:6969 2 0 0 2 weeks
    http://explodie.org:6969/announce 2 3 0 2 weeks
    http://bt1.archive.org:6969/announce 3 0 0 2 weeks
    http://tracker1.itzmx.com:8080/announce 24 19 0 2 weeks
    udp://tracker.leechers-paradise.org:6969 7 14 0 2 weeks

    No comments yet.