Downrange (2018) 720p Movie HDRip x264 AC3 by Full4movies

seeders: 8     leechers: 3     updated: 5 months ago

Downloading Seeding from 0 peers
of -
0 b/s / 0 b/s

Warning! Use a VPN When Downloading Torrents.


Your IP Address is 54.145.83.79 Location is US.
Hide your IP ADDRESS with a VPN!

Get VPN App Mac Now!


    Downrange (2018) 720p Movie HDRip x264 AC3 by Full4movies ( 372.69 MB )
    Downrange (2018) 720p Movie HDRip x264 AC3 by Full4movies.mp4372.69 MB

    By the way you can play this film on Mac with Elmedia Player



    General
    Complete name                  : Downrange (2018) 720p Movie HDRip x264 AC3 by Full4movies.mp4
    Format                         : MPEG-4
    Format profile                 : Base Media
    Codec ID                       : isom (isom/iso2/avc1/mp41)
    File size                      : 373 MiB
    Duration                       : 1 h 29 min
    Overall bit rate               : 582 kb/s
    Movie name                     : Downrange (2018) - www.Full4movies.co
    Writing application            : Lavf57.83.100

    Video
    ID                             : 1
    Format                         : AVC
    Format/Info                    : Advanced Video Codec
    Format profile                 : [email protected]
    Format settings, CABAC         : Yes
    Format settings, RefFrames     : 5 frames
    Codec ID                       : avc1
    Codec ID/Info                  : Advanced Video Coding
    Duration                       : 1 h 29 min
    Bit rate                       : 512 kb/s
    Width                          : 720 pixels
    Height                         : 304 pixels
    Display aspect ratio           : 2.35:1
    Frame rate mode                : Constant
    Frame rate                     : 29.970 (30000/1001) FPS
    Color space                    : YUV
    Chroma subsampling             : 4:2:0
    Bit depth                      : 8 bits
    Scan type                      : Progressive
    Bits/(Pixel*Frame)             : 0.078
    Stream size                    : 327 MiB (88%)
    Writing library                : x264 core 148 r2643 5c65704

    Audio
    ID                             : 2
    Format                         : AAC
    Format/Info                    : Advanced Audio Codec
    Format profile                 : LC
    Codec ID                       : 40
    Duration                       : 1 h 29 min
    Duration_LastFrame             : -11 ms
    Bit rate mode                  : Constant
    Bit rate                       : 64.8 kb/s
    Channel(s)                     : 2 channels
    Channel positions              : Front: L R
    Sampling rate                  : 48.0 kHz
    Frame rate                     : 46.875 FPS (1024 SPF)
    Compression mode               : Lossy
    Stream size                    : 41.5 MiB (11%)
    Default                        : Yes
    Alternate group                : 1

    Screen Shoots



    SIMILAR

    TORRENT   UPLOADEDSIZESEEDS LEECHS
    Downrange 2018.HDRip.XviD.AC3-EVO by xxxlavalxxx 5 months 1.29 GB16 2
    Downrange 2018.BRRip.XviD.AC3-EVO[EtMovies] by EtHD 5 months 1.33 GB30 10
    Downrange 2018.HDRip.XviD.AC3-EVO[EtMovies] by EtHD 6 months 1.29 GB97 10
    Downrange.2018.HDRip.XviD.AC3-EVO by Supernova 6 months 1.29 GB7 5
    Downrange 2018.HDRip.XviD.AC3-EVO[N1C] by juggs99 6 months 1.29 GB7 3
    Downrange 2018 Movies HDRip x264 AAC with Sample ☻rDX☻ by basicssom 5 months 705.06 MB15 29
    Downrange.2017.BDRip.x264-UNVEiL[EtMovies] by EtHD 5 months 618.61 MB7 7

    Torrent Hash: 0300CABB63F22861F568143F60200F2B9E27FFC7


    Num Trackers: 9 trackers




    TRACKER'S LIST COMPATIBLE WITH BITTORRENT CLIENT


    TrackerSeedersLeechersCompletedUpdated
    udp://tracker.leechers-paradise.org:6969 8 3 0 5 months
    udp://tracker.coppersurfer.tk:6969 6 4 0 5 months
    http://public.popcorn-tracker.org:6969/announce 6 3 0 5 months
    http://191.96.249.23:6969/announce 6 2 0 5 months
    udp://tracker.opentrackr.org:1337 4 3 0 5 months
    http://tracker.mg64.net:6881/announce 2 0 0 5 months
    http://bt.xxx-tracker.com:2710/announce 1 0 0 5 months
    http://mgtracker.org:2710/announce 0 1 0 5 months
    udp://thetracker.org:80/announce 0 1 0 5 months

    No comments yet.