Downrange (2018) 720p Movie HDRip x264 AC3 by Full4movies

seeders: 8     leechers: 3     updated: 1 week ago
Uploaded by mimranjamil1498 , was 2 weeks ago, day 05/05/2018 12:52:52
Downloaded 13 times, 372.69 MB - 1 file , filmes > DVDRip


Warning! Use a VPN When Downloading Torrents.


Your IP Address is 54.198.119.26 Location is US.
Hide your IP ADDRESS with a VPN!

Get VPN App Mac Now!


    Downrange (2018) 720p Movie HDRip x264 AC3 by Full4movies ( 372.69 MB )
    Downrange (2018) 720p Movie HDRip x264 AC3 by Full4movies.mp4372.69 MB

    By the way you can play this film on Mac with Elmedia Player



    General
    Complete name                  : Downrange (2018) 720p Movie HDRip x264 AC3 by Full4movies.mp4
    Format                         : MPEG-4
    Format profile                 : Base Media
    Codec ID                       : isom (isom/iso2/avc1/mp41)
    File size                      : 373 MiB
    Duration                       : 1 h 29 min
    Overall bit rate               : 582 kb/s
    Movie name                     : Downrange (2018) - www.Full4movies.co
    Writing application            : Lavf57.83.100

    Video
    ID                             : 1
    Format                         : AVC
    Format/Info                    : Advanced Video Codec
    Format profile                 : [email protected]
    Format settings, CABAC         : Yes
    Format settings, RefFrames     : 5 frames
    Codec ID                       : avc1
    Codec ID/Info                  : Advanced Video Coding
    Duration                       : 1 h 29 min
    Bit rate                       : 512 kb/s
    Width                          : 720 pixels
    Height                         : 304 pixels
    Display aspect ratio           : 2.35:1
    Frame rate mode                : Constant
    Frame rate                     : 29.970 (30000/1001) FPS
    Color space                    : YUV
    Chroma subsampling             : 4:2:0
    Bit depth                      : 8 bits
    Scan type                      : Progressive
    Bits/(Pixel*Frame)             : 0.078
    Stream size                    : 327 MiB (88%)
    Writing library                : x264 core 148 r2643 5c65704

    Audio
    ID                             : 2
    Format                         : AAC
    Format/Info                    : Advanced Audio Codec
    Format profile                 : LC
    Codec ID                       : 40
    Duration                       : 1 h 29 min
    Duration_LastFrame             : -11 ms
    Bit rate mode                  : Constant
    Bit rate                       : 64.8 kb/s
    Channel(s)                     : 2 channels
    Channel positions              : Front: L R
    Sampling rate                  : 48.0 kHz
    Frame rate                     : 46.875 FPS (1024 SPF)
    Compression mode               : Lossy
    Stream size                    : 41.5 MiB (11%)
    Default                        : Yes
    Alternate group                : 1

    Screen Shoots



    SIMILAR

    TORRENT   UPLOADEDSIZESEEDS LEECHS
    Downrange 2018.HDRip.XviD.AC3-EVO[EtMovies] by EtHD 2 weeks 1.29 GB97 10
    Downrange.2018.HDRip.XviD.AC3-EVO by Supernova 2 weeks 1.29 GB7 5
    Downrange 2018.HDRip.XviD.AC3-EVO[N1C] by juggs99 2 weeks 1.29 GB7 3
    Downrange 2018 Movies 720p HDRip x264 5.1 with Sample ☻rDX☻ by basicssom 2 weeks 839.03 MB11 7
    Downrange.2017.1080p.Amazon.WEB-DL.DD+2.0.H.264-QOQ by Supernova 1 week 4.47 GB6 1
    Downrange.2017.1080p.Amazon.WEB-DL.DD+2.0.H.264-QOQ[EtHD] by EtHD 1 week 4.47 GB28 2
    Downrange.2017.HDRip.x264.AAC-eXceSs by Supernova 1 week 629.59 MB2 3

    Torrent Hash: 0300CABB63F22861F568143F60200F2B9E27FFC7


    Num Trackers: 9 trackers




    TRACKER'S LIST COMPATIBLE WITH BITTORRENT CLIENT


    TrackerSeedersLeechersCompletedUpdated
    udp://tracker.leechers-paradise.org:6969 8 3 0 1 week
    udp://tracker.coppersurfer.tk:6969 6 4 0 1 week
    http://public.popcorn-tracker.org:6969/announce 6 3 0 2 weeks
    http://191.96.249.23:6969/announce 6 2 0 2 weeks
    udp://tracker.opentrackr.org:1337 4 3 0 1 week
    http://tracker.mg64.net:6881/announce 2 0 0 1 week
    http://bt.xxx-tracker.com:2710/announce 1 0 0 2 weeks
    http://mgtracker.org:2710/announce 0 1 0 1 week
    udp://thetracker.org:80/announce 0 1 0 2 weeks

    No comments yet.