Escape Plan 2 Hades (2018) 720p [Hindi (Cleaned) - English 2.0] HDRip x264 AAC ESub by Full4movies

seeders: 1     leechers: 0     updated: 23 hours ago
Uploaded by mimranjamil2948 , was 1 week ago, day 12/07/2018 15:38:19
Downloaded 63 times, 942.25 MB - 1 file , filmes > BDRip


Warning! Use a VPN When Downloading Torrents.


Your IP Address is 54.162.128.159 Location is US.
Hide your IP ADDRESS with a VPN!

Get VPN App Mac Now!


    Escape Plan 2 Hades (2018) 720p [Hindi (Cleaned) - English 2.0] HDRip x264 AAC ESub by Full4movies ( 942.25 MB )
    Escape Plan 2 Hades (2018) 720p [Hindi (Cleaned) - English 2.0] HDRip x264 AAC ESub by Full4movies.mkv942.25 MB

    By the way you can play this film on Mac with Elmedia Player



    General
    Complete name                  : Escape Plan 2 Hades (2018) 720p [Hindi (Cleaned) - English 2.0] HDRip x264 AAC ESub by Full4movies.mkv
    Format                         : Matroska
    Format version                 : Version 4 / Version 2
    File size                      : 942 MiB
    Duration                       : 1 h 33 min
    Overall bit rate               : 1 407 kb/s
    Movie name                     : www.Full4movies.co
    Encoded date                   : UTC 2018-07-12 08:47:24
    Writing application            : mkvmerge v8.1.0 ('Psychedelic Postcard') 32bit
    Writing library                : libebml v1.3.1 + libmatroska v1.4.2

    Video
    ID                             : 1
    Format                         : AVC
    Format/Info                    : Advanced Video Codec
    Format profile                 : [email protected]
    Format settings, CABAC         : Yes
    Format settings, RefFrames     : 4 frames
    Codec ID                       : V_MPEG4/ISO/AVC
    Duration                       : 1 h 33 min
    Bit rate                       : 1 200 kb/s
    Width                          : 1 280 pixels
    Height                         : 536 pixels
    Display aspect ratio           : 2.40:1
    Frame rate mode                : Constant
    Frame rate                     : 23.976 (24000/1001) FPS
    Color space                    : YUV
    Chroma subsampling             : 4:2:0
    Bit depth                      : 8 bits
    Scan type                      : Progressive
    Bits/(Pixel*Frame)             : 0.073
    Stream size                    : 791 MiB (84%)
    Title                          : www.Full4movies.co
    Writing library                : x264 core 155 r2901 7d0ff22
    Default                        : Yes
    Forced                         : No
    Color range                    : Limited
    Color primaries                : BT.709
    Transfer characteristics       : BT.709
    Matrix coefficients            : BT.709

    Audio #1
    ID                             : 2
    Format                         : AAC
    Format/Info                    : Advanced Audio Codec
    Format profile                 : LC
    Codec ID                       : A_AAC
    Duration                       : 1 h 33 min
    Bit rate                       : 128 kb/s
    Channel(s)                     : 2 channels
    Channel positions              : Front: L R
    Sampling rate                  : 48.0 kHz
    Frame rate                     : 46.875 FPS (1024 SPF)
    Compression mode               : Lossy
    Stream size                    : 85.7 MiB (9%)
    Language                       : Hindi
    Default                        : Yes
    Forced                         : Yes

    Audio #2
    ID                             : 3
    Format                         : AAC
    Format/Info                    : Advanced Audio Codec
    Format profile                 : HE-AAC / LC
    Codec ID                       : A_AAC
    Duration                       : 1 h 33 min
    Bit rate                       : 96.0 kb/s
    Channel(s)                     : 2 channels
    Channel positions              : Front: L R
    Sampling rate                  : 48.0 kHz / 24.0 kHz
    Frame rate                     : 23.438 FPS (1024 SPF)
    Compression mode               : Lossy
    Stream size                    : 63.4 MiB (7%)
    Language                       : English
    Default                        : No
    Forced                         : No

    Text
    ID                             : 4
    Format                         : UTF-8
    Codec ID                       : S_TEXT/UTF8
    Codec ID/Info                  : UTF-8 Plain Text
    Duration                       : 1 h 24 min
    Bit rate                       : 45 b/s
    Count of elements              : 848
    Stream size                    : 28.2 KiB (0%)
    Language                       : English
    Default                        : Yes
    Forced                         : No

    Screen Shoots



    SIMILAR

    TORRENT   UPLOADEDSIZESEEDS LEECHS
    The Dillinger Escape Plan - Dissociation (2016) [MP3~320Kbps] by kajalsus 1 year 115.55 MB58 3
    Escape.Plan.2.Hades.2018.BDRip.x264-WiDE by TvTeam 2 weeks 656.71 MB20 20
    Escape Plan 2 Hades.2018.DVDRip.XviD.AC3-EVO by xxxlavalxxx 1 1 month 1.38 GB4 937 5 483
    Escape.Plan.2.Hades.2018.BDRip.x264-WiDE[EtMovies] by EtHD 2 weeks 663.61 MB65 47
    Escape.Plan.2.Hades.2018.1080p.BluRay.x264.DTS-HDC by felipewinchester 1 month 11.96 GB1 0
    Escape Plan 2 Hades.2018.DVDRip.XviD.AC3-EVO[EtMovies] by EtHD 3 weeks 1.38 GB3 0
    Escape.Plan.2.Hades.2018.1080p.BluRay.x264.DTS-HD.MA5.1-HDChi... by EtHD 1 month 13.67 GB169 221

    Torrent Hash: 7C28B9B8772453BC31A12B17EC9B9D4FF19C1F84


    Num Trackers: 1 trackers




    TRACKER'S LIST COMPATIBLE WITH BITTORRENT CLIENT


    TrackerSeedersLeechersCompletedUpdated
    udp://thetracker.org:80/announce 1 0 0 23 hours

    No comments yet.