Fast.and.Furious.Presents.Hobbs.and.Shaw.2019.1080p.HC.HDRip.X264.AC3.With.Sample.LLG

seeders: 0     leechers: 0     updated: 1 week ago

Downloading Seeding from 0 peers
of -
0 b/s / 0 b/s

Warning! Use a VPN When Downloading Torrents.


Your IP Address is 3.228.24.192 Location is US.
Hide your IP ADDRESS with a VPN!

Get VPN App Mac Now!


    Fast.and.Furious.Presents.Hobbs.and.Shaw.2019.1080p.HC.HDRip.X264.AC3.With.Sample.LLG ( 2.10 GB )
    SAMPLE.ts6.15 MB
    Fast.and.Furious.Presents.Hobbs.and.Shaw.2019.1080p.HC.HDRip.X264.AC3.With.Sample.LLG.mp42.09 GB

    By the way you can play this film on Mac with Elmedia Player

    quote:




    ******************************Thumbnail:**********************




    ******************************Screenshots:********************

    Screenshot 1

    Screenshot 2

    Screenshot 3

    Screenshot 4

    Screenshot 5

    Screenshot 6

    Screenshot 7

    Screenshot 8

    Screenshot 9

    Screenshot 0


    ***************************************************************

    Fast.and.Furious.Presents.Hobbs.and.Shaw.2019.1080p.HC.HDRip.X264.AC3.With.Sample.LLG.mp4
    Format                                   : MPEG-4
    Format profile                           : Base Media
    Codec ID                                 : isom (isom/iso2/avc1/mp41)
    File size                                : 2.09 GiB
    Duration                                 : 2 h 9 min
    Overall bit rate mode                    : Variable
    Overall bit rate                         : 2 314 kb/s


    Video
    ID                                       : 1
    Format                                   : AVC
    Format/Info                              : Advanced Video Codec
    Format profile                           : [email protected]
    Format settings                          : CABAC / 1 Ref Frames
    Format settings, CABAC                   : Yes
    Format settings, Reference frames        : 1 frame
    Codec ID                                 : avc1
    Codec ID/Info                            : Advanced Video Coding
    Duration                                 : 2 h 9 min
    Bit rate mode                            : Variable
    Bit rate                                 : 1 926 kb/s
    Maximum bit rate                         : 6 000 kb/s
    Width                                    : 1 920 pixels
    Height                                   : 800 pixels
    Display aspect ratio                     : 2.40:1
    Frame rate mode                          : Constant
    Frame rate                               : 23.976 (23976/1000) FPS
    Color space                              : YUV
    Chroma subsampling                       : 4:2:0
    Bit depth                                : 8 bits
    Scan type                                : Progressive
    Bits/(Pixel*Frame)                       : 0.052
    Stream size                              : 1.74 GiB (83%)


    Audio
    ID                                       : 2
    Format                                   : AC-3
    Format/Info                              : Audio Coding 3
    Commercial name                          : Dolby Digital
    Codec ID                                 : ac-3
    Duration                                 : 2 h 9 min
    Bit rate mode                            : Constant
    Bit rate                                 : 384 kb/s
    Channel(s)                               : 2 channels
    Channel layout                           : L R
    Sampling rate                            : 48.0 kHz
    Frame rate                               : 31.250 FPS (1536 SPF)
    Bit depth                                : 16 bits
    Compression mode                         : Lossy
    Stream size                              : 355 MiB (17%)
    Language                                 : English
    Service kind                             : Complete Main
    Default                                  : Yes
    Alternate group                          : 1




    ***************************************************************






    SIMILAR

    TORRENT   UPLOADEDSIZESEEDS LEECHS
    Fast Eddie Clarke - Day Back to Blues 2014 ak320 by analogkid6103 1 year 256.33 MB16 2
    Furious Angels v1.37 by dauphong 2 years 19.60 MB2 1
    Fast.N.Loud.S07E00.Fast.N.So.Long.iNTERNAL.720p.HDTV.x264-DHD... by EtHD 2 years 0.98 GB45 2
    Fast Food Girls (PornFidelity) XXX DVDRip NEW 2019 by xxxlavalxxx 3 months 2.50 GB38 52
    Lemaitre - Fast Lovers EP (2019) [320 KBPS] by Freak0370 8 months 52.14 MB16 8
    Fast Dust-HOODLUM by dauphong 1 year 3.13 GB28 7
    Fast Layne S01E03 WEB x264-TBS by TvTeam 8 months 184.76 MB3 0

    Did not find anything about this torrent yet...


    Torrent Hash: 93D1EABF90C83EFFF369023441D4AD4F44757EBD

    No comments yet.