Fifty Shades Darker 2017 READNFO CAM XviD AC3 ACAB

seeders: 1 411     leechers: 205     atualizado: 2 meses atrás
Enviado por xxxlavalxxx23265 , há 3 meses atrás, dia 12/02/2017 19:44:03
Baixado 502 vezes, com 1.38 GB - 3 arquivos , em filmes > BDRip

    Fifty Shades Darker 2017 READNFO CAM XviD AC3 ACAB ( 1.38 GB )
    Fifty Shades Darker 2017 READNFO CAM XviD AC3 ACAB sample.avi20.46 MB
    Fifty Shades Darker 2017 READNFO CAM XviD AC3 ACAB.avi1.36 GB
    Torrent Downloaded From ExtraTorrent.cc.txt0.33 kB

    https://extraimage.net/image/2zOL

    http://www.imdb.com/title/tt4465564/

    While Christian wrestles with his inner demons, Anastasia must confront the anger and envy of the women who came before her.

    Director: James Foley
    Writers: Niall Leonard (screenplay), E.L. James (based on the novel by)
    Stars: Dakota Johnson, Jamie Dornan, Eric Johnson
    Genres: Drama | Romance
    Country: USA
    Language: English

    READNFO Reason
    Took The Spanish Video Which Was Missing 9 Mins So I Added The Missing Part From The Italian Video Then synced Audio Over. Adjusted A Bit Of Colouring. Had Some Help With the Syncing So Thanks To You Know Who. Now It Seems Complete Enjoy...

    Source Video - Spanish And Italian CAM's [Thanks]
    Source Audio - Thanks Bro :bow:

    Format           : AVI
    Format/Info         : Audio Video Interleave
    File size          : 1.36 GiB
    Duration          : 1 h 51 min
    Overall bit rate      : 1 748 kb/s
    Writing library       : VirtualDub build 30091/release

    Video
    ID             : 0
    Format           : MPEG-4 Visual
    Format profile       : Advanced [email protected]
    Format settings, BVOP    : 2
    Format settings, QPel    : No
    Format settings, GMC    : No warppoints
    Format settings, Matrix   : Default (H.263)
    Muxing mode         : Packed bitstream
    Codec ID          : XVID
    Codec ID/Hint        : XviD
    Duration          : 1 h 51 min
    Bit rate          : 1 610 kb/s
    Width            : 720 pixels
    Height           : 320 pixels
    Display aspect ratio    : 2.25:1
    Frame rate         : 23.976 (24000/1001) FPS
    Original frame rate     : 23.976 (23976/1000) FPS
    Color space         : YUV
    Chroma subsampling     : 4:2:0
    Bit depth          : 8 bits
    Scan type          : Progressive
    Compression mode      : Lossy
    Bits/(Pixel*Frame)     : 0.291
    Stream size         : 1.26 GiB (92%)
    Writing library       : XviD 73

    Audio
    ID             : 1
    Format           : AC-3
    Format/Info         : Audio Coding 3
    Mode extension       : CM (complete main)
    Format settings, Endianness : Big
    Codec ID          : 2000
    Duration          : 1 h 51 min
    Bit rate mode        : Constant
    Bit rate          : 128 kb/s
    Channel(s)         : 2 channels
    Channel positions      : Front: L R
    Sampling rate        : 44.1 kHz
    Frame rate         : 28.711 FPS (1536 spf)
    Bit depth          : 16 bits
    Compression mode      : Lossy
    Stream size         : 102 MiB (7%)
    Alignment          : Aligned on interleaves
    Interleave, duration    : 35 ms (0.84 video frame)
    Interleave, preload duratio : 522 ms

    https://extraimage.net/image/2zOb
    https://extraimage.net/image/2zO3
    https://extraimage.net/image/2zO9
    https://extraimage.net/image/2zOM
    https://extraimage.net/image/2zOU
    https://extraimage.net/image/2zO0
    https://extraimage.net/image/2zOz
    https://extraimage.net/image/2zOJ
    https://extraimage.net/image/2zOK



    SIMILARES

    TORRENT   ENVIADOTAMANHOSEEDS LEECHS
    [GirlsRimming]Cristin, Tina - Fifty Shades of Rimming - Part 4 [ 1 mês 1.24 GB22 7
    Fifty.Shades.Darker.2017.HDRip.XViD-ETRG 1 mês 704.53 MB1 818 1 305
    Fifty.Shades.Darker.2017.UNRATED.BRRip.XViD.AC3-ETRG 1 mês 1.40 GB339 207
    Fifty.Shades.Darker.2017.HDRip.XviD.AC3-EVO 1 mês 1.40 GB90 32
    Fifty.Shades.Darker.2017.1080p.WEB-DL.H264.AC3-EVO[EtHD] 1 mês 3.91 GB286 95
    Fifty.Shades.Darker.2017.720p.WEB-DL.H264.AC3-EVO[EtHD] 1 mês 3.52 GB268 46
    Fifty.Shades.Darker.2017.HC.Hybrid.HDRip.XviD.AC3-EVO 2 meses 1.44 GB1 229 439

    Torrent Hash: 7EFAFAA349D2E43ED4E099DDC41CD99BEBBD038B


    Num Trackers: 3 trackers




    LISTA DE TRACKERS PARA CLIENTE BITTORRENT


    TrackerSeedersLeechersCompletoAtualizado
    udp://tracker.coppersurfer.tk:6969/announce 1 411 205 0 3 meses
    udp://tracker.leechers-paradise.org:6969/announce 1 313 185 0 3 meses
    udp://tracker.zer0day.to:1337/announce 478 99 0 3 meses

    Nenhum Comentário Ainda