Formula 1 2019 Italian Grand Prix HDTV x264 720

seeders: 34     leechers: 2     updated: 1 day ago

Downloading Seeding from 0 peers
of -
0 b/s / 0 b/s

Warning! Use a VPN When Downloading Torrents.


Your IP Address is 34.204.194.190 Location is US.
Hide your IP ADDRESS with a VPN!

Get VPN App Mac Now!


    Formula 1 2019 Italian Grand Prix HDTV x264 720 ( 3.01 GB )
    Downloaded from.txt0.06 kB
    Formula 1.txt5.10 kB
    Formula 1 2019 Italian Grand Prix HDTV x264 720.mkv3.01 GB

    By the way you can play this film on Mac with Elmedia Player

    Formula 1  2019

    Italian Grand Prix
    Autodromo Nazionale Monza
    *ITALIAN GRAND PRIX RACE
    Sun, Sep 8
    9:05 AM ET
    ESPN2 - SkySports






    General
    Complete name                            : Formula 1 2019 Italian Grand Prix HDTV x264 720.mkv
    Format                                   : Matroska
    Format version                           : Version 4
    File size                                : 3.01 GiB
    Duration                                 : 1 h 32 min
    Overall bit rate                         : 4 662 kb/s
    Encoded date                             : UTC 2019-09-08 16:20:43
    Writing application                      : mkvmerge v28.2.0 ('The Awakening') 64-bit
    Writing library                          : libebml v1.3.6 + libmatroska v1.4.9

    Video
    ID                                       : 1
    Format                                   : AVC
    Format/Info                              : Advanced Video Codec
    Format profile                           : [email protected]
    Format settings                          : CABAC / 5 Ref Frames
    Format settings, CABAC                   : Yes
    Format settings, RefFrames               : 5 frames
    Codec ID                                 : V_MPEG4/ISO/AVC
    Duration                                 : 1 h 32 min
    Bit rate                                 : 4 274 kb/s
    Width                                    : 1 280 pixels
    Height                                   : 714 pixels
    Display aspect ratio                     : 16:9
    Frame rate mode                          : Constant
    Frame rate                               : 59.940 (60000/1001) FPS
    Color space                              : YUV
    Chroma subsampling                       : 4:2:0
    Bit depth                                : 8 bits
    Scan type                                : Progressive
    Bits/(Pixel*Frame)                       : 0.078
    Stream size                              : 2.76 GiB (92%)
    Writing library                          : x264 core 152 r2851 ba24899
    Default                                  : Yes
    Forced                                   : No

    Audio
    ID                                       : 2
    Format                                   : AC-3
    Format/Info                              : Audio Coding 3
    Commercial name                          : Dolby Digital
    Codec ID                                 : A_AC3
    Duration                                 : 1 h 32 min
    Bit rate mode                            : Constant
    Bit rate                                 : 384 kb/s
    Channel(s)                               : 6 channels
    Channel layout                           : L R C LFE Ls Rs
    Sampling rate                            : 48.0 kHz
    Frame rate                               : 31.250 FPS (1536 SPF)
    Bit depth                                : 16 bits
    Compression mode                         : Lossy
    Stream size                              : 254 MiB (8%)
    Language                                 : new
    Service kind                             : Complete Main
    Default                                  : Yes
    Forced                                   : No





    SIMILAR

    TORRENT   UPLOADEDSIZESEEDS LEECHS
    Formula 1 2019 Australian Grand Prix HDTV x264 720 by HackRF 6 months 3.34 GB32 2
    Formula 1 2019 Bahrain Grand Prix HDTV x264 720 by HackRF 6 months 2.62 GB38 0
    Formula 1 2019 Austrian Grand Prix HDTV x264 720 by HackRF 3 months 3.15 GB38 2
    Formula 1 2019 French Grand Prix HDTV x264 720 by HackRF 3 months 3.18 GB7 0
    Formula 1 2019 Hungarian Grand Prix HDTV x264 720 by HackRF 1 month 3.40 GB22 3
    Formula E 2019 06 22 Bern ePrix 720p WEB H264-SENDiT by TvTeam 3 months 5.97 GB14 5
    BRDC Formula 3 Championship 2019 06 16 Highlights WEB x264-GRi by TvTeam 3 months 517.61 MB0 2

    Torrent Hash: 9F6C0E525E144FDA656AEC98F247B1462805DC91


    Num Trackers: 10 trackers




    TRACKER'S LIST COMPATIBLE WITH BITTORRENT CLIENT


    TrackerSeedersLeechersCompletedUpdated
    udp://tracker.leechers-paradise.org:6969/announce 26 2 0 1 week
    udp://tracker.coppersurfer.tk:6969/announce 34 2 0 1 week
    udp://retracker.lanta-net.ru:2710/announce 18 1 0 1 week
    udp://tracker.supertracker.net:1337/announce 17 1 0 1 week
    udp://open.demonii.si:1337/announce 17 2 0 1 week
    udp://bt.xxxtracker.unblockninja.info:2710/announce 16 1 0 1 week
    udp://tracker.gbitt.info:80/announce 14 1 0 1 week
    udp://tracker.internetwarriors.net:1337/announce 12 0 0 1 week
    http://tracker.gbitt.info:80/announce 14 0 0 1 week
    udp://torrentclub.tech:6969/announce 10 1 0 1 week