Gnome Alone 2017 720p WEB-DL AAC 2.0 x264 [MW]

seeders: 1     leechers: 0     updated: 2 days ago
Uploaded by MovieFreak8116 , was 2 weeks ago, day 05/06/2018 08:56:38
Downloaded 14 times, 798.69 MB - 1 file , filmes > WebDL


Warning! Use a VPN When Downloading Torrents.


Your IP Address is 54.166.233.99 Location is US.
Hide your IP ADDRESS with a VPN!

Get VPN App Mac Now!


    Gnome Alone 2017 720p WEB-DL AAC 2.0 x264 [MW] ( 798.69 MB )
    Gnome Alone 2017 720p WEB-DL AAC 2.0 x264 [MW].mkv798.69 MB

    By the way you can play this film on Mac with Elmedia Player





    General
    Format                                   : Matroska
    Format version                           : Version 4 / Version 2
    File size                                : 799 MiB
    Duration                                 : 1 h 25 min
    Overall bit rate                         : 1 310 kb/s
    a
    Video
    ID                                       : 1
    Format                                   : AVC
    Format/Info                              : Advanced Video Codec
    Format profile                           : [email protected]
    Format settings                          : CABAC / 4 Ref Frames
    Format settings, CABAC                   : Yes
    Format settings, RefFrames               : 4 frames
    Codec ID                                 : V_MPEG4/ISO/AVC
    Duration                                 : 1 h 25 min
    Bit rate                                 : 1 200 kb/s
    Width                                    : 1 280 pixels
    Height                                   : 692 pixels
    Display aspect ratio                     : 1.85:1
    Frame rate mode                          : Constant
    Frame rate                               : 24.000 FPS
    Color space                              : YUV
    Chroma subsampling                       : 4:2:0
    Bit depth                                : 8 bits
    Scan type                                : Progressive
    Bits/(Pixel*Frame)                       : 0.056
    Stream size                              : 720 MiB (90%)
    Writing library                          : x264 core 155 r2893 b00bcaf
    Default                                  : Yes
    Forced                                   : No

    Audio
    ID                                       : 2
    Format                                   : AAC
    Format/Info                              : Advanced Audio Codec
    Format profile                           : HE-AAC / LC
    Format settings                          : Explicit
    Codec ID                                 : A_AAC-2
    Duration                                 : 1 h 25 min
    Bit rate                                 : 127 kb/s
    Channel(s)                               : 2 channels
    Channel positions                        : Front: L R
    Sampling rate                            : 48.0 kHz / 24.0 kHz
    Frame rate                               : 23.438 FPS (1024 SPF)
    Compression mode                         : Lossy
    Stream size                              : 77.1 MiB (10%)
    Language                                 : English
    Default                                  : Yes
    Forced                                   : No

    Menu
    00:00:00.000                             : en:1
    00:15:00.000                             : en:2
    00:29:59.958                             : en:3
    00:45:00.000                             : en:4
    00:59:59.958                             : en:5
    01:16:17.958                             : en:6






    https://pichub.site/image/MlFz5
    https://pichub.site/image/MlWjj
    https://pichub.site/image/MlQ5h
    https://pichub.site/image/Mlewr
    https://pichub.site/image/Mlj0k
    https://pichub.site/image/MlqTQ





    SIMILAR

    TORRENT   UPLOADEDSIZESEEDS LEECHS
    Gnome.Alone.2017.HDRip.XviD.AC3-EVO by xxxlavalxxx 5 days 1.16 GB58 41
    Gnome.Alone.2017.HDRip.XviD.AC3-EVO by Supernova 1 week 1.16 GB1 0
    Gnome.Alone.2017.HDRip.XviD.AC3-EVO[EtMovies] by EtHD 4 days 1.16 GB8 3
    Gnome Alone (2017) 720p BrRip x264 - YIFY by YIFY 2 weeks 726.34 MB2 068 973
    Gnome Alone (2017) 1080p BrRip x264 - YIFY by YIFY 2 weeks 1.36 GB904 274
    Gnome Alone 2017 1080p WEB-DL DD5 1 H264-CMRG[EtHD] by EtHD 4 days 3.16 GB3 0
    Gnome.Alone.2017.HDRip.XviD.AC3.LLG by LifeLongg 6 days 877.11 MB1 1

    Torrent Hash: 88C85158A4F9EFEDB87C5DCF0B17F8523A22FF5B


    Num Trackers: 4 trackers




    TRACKER'S LIST COMPATIBLE WITH BITTORRENT CLIENT


    TrackerSeedersLeechersCompletedUpdated
    udp://thetracker.org:80/announce 1 0 0 2 days
    http://bt.xxx-tracker.com:2710/announce 1 0 0 2 days
    http://public.popcorn-tracker.org:6969/announce 1 0 0 2 days
    http://191.96.249.23:6969/announce 1 0 0 2 days

    No comments yet.