Happy Death Day 2017 720p HC HDRip X264 AAC

seeders: 61     leechers: 36     updated: 2 months ago
Uploaded by MovieFreak3411 , was 3 months ago, day 27/10/2017 15:42:19
Downloaded 90 times, 907.96 MB - 1 file , filmes > WebDL


Warning! Use a VPN When Downloading Torrents.


Your IP Address is 54.167.126.106 Location is US.
Hide your IP ADDRESS with a VPN!

Get VPN App Mac Now!


    Happy Death Day 2017 720p HC HDRip X264 AAC ( 907.96 MB )
    Happy Death Day 2017 720p HC HDRip X264 AAC.mkv907.96 MB

    By the way you can play this film on Mac with Elmedia Player






    General
    Format                                   : Matroska
    Format version                           : Version 4 / Version 2
    File size                                : 908 MiB
    Duration                                 : 1 h 35 min
    Overall bit rate                         : 1 324 kb/s

    Video
    ID                                       : 1
    Format                                   : AVC
    Format/Info                              : Advanced Video Codec
    Format profile                           : [email protected]
    Format settings                          : CABAC / 4 Ref Frames
    Format settings, CABAC                   : Yes
    Format settings, RefFrames               : 4 frames
    Codec ID                                 : V_MPEG4/ISO/AVC
    Duration                                 : 1 h 35 min
    Bit rate                                 : 1 200 kb/s
    Width                                    : 1 280 pixels
    Height                                   : 512 pixels
    Display aspect ratio                     : 2.500
    Frame rate mode                          : Constant
    Frame rate                               : 25.000 FPS
    Color space                              : YUV
    Chroma subsampling                       : 4:2:0
    Bit depth                                : 8 bits
    Scan type                                : Progressive
    Bits/(Pixel*Frame)                       : 0.073
    Stream size                              : 819 MiB (90%)
    Writing library                          : x264 core 148 r2643 5c65704
    Default                                  : Yes
    Forced                                   : No

    Audio
    ID                                       : 2
    Format                                   : AAC
    Format/Info                              : Advanced Audio Codec
    Format profile                           : LC
    Codec ID                                 : A_AAC-2
    Duration                                 : 1 h 35 min
    Bit rate                                 : 128 kb/s
    Channel(s)                               : 2 channels
    Channel positions                        : Front: L R
    Sampling rate                            : 44.1 kHz
    Frame rate                               : 43.066 FPS (1024 SPF)
    Compression mode                         : Lossy
    Stream size                              : 87.8 MiB (10%)
    Language                                 : English
    Default                                  : Yes
    Forced                                   : No













    SIMILAR

    TORRENT   UPLOADEDSIZESEEDS LEECHS
    Nude European Girls Mega Collection **Xxx Exclusive** by NewPornUp 9 months 118.17 MB19 6
    Happy.Death.Day.2017.WEB-DL.x264-FGT by felipewinchester 2 weeks 838.42 MB12 0
    Happy.Death.Day.2017.BDRip.x264-DRONES[EtMovies] by EtHD 2 weeks 554.24 MB29 6
    Happy.Death.Day.2017.HC.HDRip.XviD.AC3-EVO by xxxlavalxxx 3 months 1.41 GB2 23
    Happy.Death.Day.2017.BRRip.XviD.AC3-EVO[EtMovies] by EtHD 2 weeks 1.40 GB82 37
    Happy.Death.Day.2017.HDRip.XviD.AC3-EVO[EtMovies] by EtHD 2 weeks 1.42 GB21 4
    Happy.Death.Day.2017.720p.HC.HDRip.X264.AC3-EVO by Supernova 3 months 2.39 GB13 66

    Torrent Hash: 0892C228F6B26E650F4B6A668067A2783BA5EBFF


    Num Trackers: 3 trackers




    TRACKER'S LIST COMPATIBLE WITH BITTORRENT CLIENT


    TrackerSeedersLeechersCompletedUpdated
    udp://tracker.coppersurfer.tk:6969/announce 61 36 0 3 months
    udp://tracker.zer0day.to:1337/announce 47 22 0 3 months
    udp://opentrackr.org:1337/announce 24 14 0 3 months

    No comments yet.