Happy.Death.Day.2017.720p.WEB.DL.H264.AC3.ESub.LLG

seeders: 6     leechers: 0     updated: 9 months ago

Downloading Seeding from 0 peers
of -
0 b/s / 0 b/s

Warning! Use a VPN When Downloading Torrents.


Your IP Address is 46.229.168.147 Location is US.
Hide your IP ADDRESS with a VPN!

Get VPN App Mac Now!


    Happy.Death.Day.2017.720p.WEB.DL.H264.AC3.ESub.LLG ( 0.99 GB )
    English.srt111.34 kB
    Sample.ts15.45 MB
    Happy.Death.Day.2017.720p.WEB.DL.H264.AC3.ESub.LLG.mp4998.11 MB

    By the way you can play this film on Mac with Elmedia Player

    ******************************Thumbnail:**********************



    ******************************Screenshots:********************

    Screenshot 1

    Screenshot 2

    Screenshot 3

    Screenshot 4

    Screenshot 5

    Screenshot 6

    Screenshot 7

    Screenshot 8

    Screenshot 9

    Screenshot 0

    **************************************************************

    Complete name                            : Happy.Death.Day.2017.720p.WEB.DL.H264.AC3.ESub.LLG
    Format                                   : MPEG-4
    Format profile                           : Base Media
    Codec ID                                 : isom (isom/iso2/avc1/mp41)
    File size                                : 998 MiB
    Duration                                 : 1 h 36 min
    Overall bit rate                         : 1 451 kb/s
    Writing application                      : Lavf57.56.101

    Video
    ID                                       : 1
    Format                                   : AVC
    Format/Info                              : Advanced Video Codec
    Format profile                           : [email protected]
    Format settings                          : CABAC / 4 Ref Frames
    Format settings, CABAC                   : Yes
    Format settings, RefFrames               : 4 frames
    Codec ID                                 : avc1
    Codec ID/Info                            : Advanced Video Coding
    Duration                                 : 1 h 36 min
    Bit rate                                 : 1 200 kb/s
    Width                                    : 1 280 pixels
    Height                                   : 532 pixels
    Display aspect ratio                     : 2.40:1
    Frame rate mode                          : Constant
    Frame rate                               : 23.976 (23976/1000) FPS
    Color space                              : YUV
    Chroma subsampling                       : 4:2:0
    Bit depth                                : 8 bits
    Scan type                                : Progressive
    Bits/(Pixel*Frame)                       : 0.073
    Stream size                              : 819 MiB (82%)
    Language                                 : English
    Menus                                    : 3

    Audio
    ID                                       : 2
    Format                                   : AC-3
    Format/Info                              : Audio Coding 3
    Codec ID                                 : ac-3
    Duration                                 : 1 h 36 min
    Bit rate mode                            : Constant
    Bit rate                                 : 256 kb/s
    Channel(s)                               : 6 channels
    Channel positions                        : Front: L C R, Side: L R, LFE
    Sampling rate                            : 48.0 kHz
    Frame rate                               : 31.250 FPS (1536 SPF)
    Bit depth                                : 16 bits
    Compression mode                         : Lossy
    Stream size                              : 176 MiB (18%)
    Language                                 : English
    Service kind                             : Complete Main
    Default                                  : Yes
    Alternate group                          : 1
    Menus                                    : 3

    Menu #1
    ID                                       : 3
    Codec ID                                 : text
    Duration                                 : 1 h 36 min
    Language                                 : English



    SIMILAR

    TORRENT   UPLOADEDSIZESEEDS LEECHS
    Happy.Death.Day.2017.Bluray.1080p.DTS-HD.x264-Grym by vonRicht 7 months 12.51 GB11 11
    Nude European Girls Mega Collection **Xxx Exclusive** by NewPornUp 1 year 118.17 MB19 6
    Happy.Death.Day.2017.WEB-DL.x264-FGT by felipewinchester 10 months 838.42 MB12 0
    Happy.Death.Day.2017.BDRip.x264-DRONES[EtMovies] by EtHD 10 months 554.24 MB29 6
    Happy.Death.Day.2017.HC.HDRip.XviD.AC3-EVO by xxxlavalxxx 1 year 1.41 GB2 23
    Happy.Death.Day.2017.BRRip.XviD.AC3-EVO[EtMovies] by EtHD 10 months 1.40 GB82 37
    Happy.Death.Day.2017.HDRip.XviD.AC3-EVO[EtMovies] by EtHD 10 months 1.42 GB21 4

    Torrent Hash: 3107A6826C98BBEA65208EF1E81AA396B1BB3C0A


    Num Trackers: 15 trackers




    TRACKER'S LIST COMPATIBLE WITH BITTORRENT CLIENT


    TrackerSeedersLeechersCompletedUpdated
    udp://tracker.leechers-paradise.org:6969/announce 6 0 0 10 months
    udp://tracker.pirateparty.gr:6969/announce 5 0 0 10 months
    udp://tracker.coppersurfer.tk:6969/announce 4 1 0 10 months
    udp://eddie4.nl:6969 4 0 0 9 months
    udp://tracker.zer0day.to:1337 3 1 0 9 months
    udp://mgtracker.org:6969 3 1 0 9 months
    udp://9.rarbg.to:2710 3 0 0 9 months
    udp://p4p.arenabg.ch:1337 3 0 0 9 months
    udp://tracker.zer0day.to:1337/announce 2 0 0 10 months
    udp://tracker.coppersurfer.tk:6969 1 0 0 9 months
    udp://public.popcorn-tracker.org:6969 1 0 0 9 months
    udp://tracker.internetwarriors.net:1337/announce 1 0 0 10 months
    udp://tracker.leechers-paradise.org:6969 0 0 0 9 months
    udp://tracker.opentrackr.org:1337 0 0 0 9 months
    http://mgtracker.org:2710/announce 0 0 0 9 months

    No comments yet.