Hostiles.2017.720p.WEBRip.x264.AAC.LLG

seeders: 1     leechers: 1     updated: 3 weeks ago
Uploaded by LifeLongg3338 , was 1 month ago, day 15/04/2018 17:19:51
Downloaded 25 times, 983.95 MB - 2 files , filmes > WebDL


Warning! Use a VPN When Downloading Torrents.


Your IP Address is 54.198.119.26 Location is US.
Hide your IP ADDRESS with a VPN!

Get VPN App Mac Now!


    Hostiles.2017.720p.WEBRip.x264.AAC.LLG ( 983.95 MB )
    Sample.mp47.90 MB
    Hostiles.2017.720p.WEBRip.x264.AAC.LLG.mp4976.05 MB

    By the way you can play this film on Mac with Elmedia Player





    ******************************Thumbnail:**********************



    ******************************Screenshots:********************

    Screenshot 1

    Screenshot 2

    Screenshot 3

    Screenshot 4

    Screenshot 5

    Screenshot 6

    Screenshot 7

    Screenshot 8

    Screenshot 9

    Screenshot 0

    **************************************************************

    Complete name                            : Hostiles.2017.720p.WEBRip.x264.AAC.LLG.mp4
    Format                                   : MPEG-4
    Format profile                           : Base Media
    Codec ID                                 : isom (isom/iso2/avc1/mp41)
    File size                                : 976 MiB
    Duration                                 : 2 h 14 min
    Overall bit rate                         : 1 016 kb/s
    Writing application                      : Lavf57.56.101

    Video
    ID                                       : 1
    Format                                   : AVC
    Format/Info                              : Advanced Video Codec
    Format profile                           : [email protected]
    Format settings                          : CABAC / 4 Ref Frames
    Format settings, CABAC                   : Yes
    Format settings, RefFrames               : 4 frames
    Codec ID                                 : avc1
    Codec ID/Info                            : Advanced Video Coding
    Duration                                 : 2 h 14 min
    Bit rate                                 : 900 kb/s
    Width                                    : 1 280 pixels
    Height                                   : 522 pixels
    Display aspect ratio                     : 2.450
    Original display aspect ratio            : 2.40:1
    Frame rate mode                          : Constant
    Frame rate                               : 23.976 (23976/1000) FPS
    Color space                              : YUV
    Chroma subsampling                       : 4:2:0
    Bit depth                                : 8 bits
    Scan type                                : Progressive
    Bits/(Pixel*Frame)                       : 0.056
    Stream size                              : 848 MiB (87%)

    Audio
    ID                                       : 2
    Format                                   : AAC
    Format/Info                              : Advanced Audio Codec
    Format profile                           : LC
    Codec ID                                 : mp4a-40-2
    Duration                                 : 2 h 14 min
    Duration_LastFrame                       : -19 ms
    Bit rate mode                            : Constant
    Bit rate                                 : 128 kb/s
    Channel(s)                               : 2 channels
    Channel positions                        : Front: L R
    Sampling rate                            : 48.0 kHz
    Frame rate                               : 46.875 FPS (1024 SPF)
    Compression mode                         : Lossy
    Stream size                              : 123 MiB (13%)
    Default                                  : Yes
    Alternate group                          : 1




    SIMILAR

    TORRENT   UPLOADEDSIZESEEDS LEECHS
    Hostiles.2017.Bluray.1080p.DTS-HD.x264-Grym by vonRicht 3 weeks 17.98 GB23 152
    Hostiles.2017.HDRip.XviD.AC3-EVO by xxxlavalxxx 1 month 1.50 GB15 3
    Hostiles.2017.HDRip.XviD.AC3-EVO by Supernova 1 month 1.50 GB1 0
    Hostiles.2017.BDRip.x264-GECKOS[EtMovies] by EtHD 1 month 707.40 MB29 14
    Hostiles.2017.HDRip.XviD.AC3-EVO by makintos13 1 month 1.50 GB609 282
    Hostiles.2017.BRRip.XviD.AC3-EVO by TvTeam 1 month 1.48 GB10 6
    Hostiles.2017.1080p.BluRay.x264-GECKOS[EtHD] by EtHD 1 month 9.95 GB1 9

    Torrent Hash: 77317A480CC36A17FC0E0C5A0B19F4A814A64123


    Num Trackers: 4 trackers




    TRACKER'S LIST COMPATIBLE WITH BITTORRENT CLIENT


    TrackerSeedersLeechersCompletedUpdated
    udp://thetracker.org:80/announce 1 1 0 3 weeks
    http://public.popcorn-tracker.org:6969/announce 0 4 0 3 weeks
    http://191.96.249.23:6969/announce 0 3 0 3 weeks
    http://bt.xxx-tracker.com:2710/announce 0 1 0 3 weeks

    No comments yet.