Hostiles (2017) Movie HDRip x264 AC3 by Full4movies.mp4

seeders: 3     leechers: 3     updated: 4 months ago
Uploaded by mimranjamil3443 , was 4 months ago, day 10/04/2018 05:33:37
Downloaded 129 times, 952.85 MB - 1 file , movies > DVDRip


Warning! Use a VPN When Downloading Torrents.


Your IP Address is 54.225.55.174 Location is US.
Hide your IP ADDRESS with a VPN!

Get VPN App Mac Now!


    Hostiles (2017) Movie HDRip x264 AC3 by Full4movies.mp4 ( 952.85 MB )
    Hostiles (2017) Movie HDRip x264 AC3 by Full4movies.mp4952.85 MB

    By the way you can play this film on Mac with Elmedia Player



    General
    Complete name                  : Hostiles (2017) Movie HDRip x264 AC3 by Full4movies.mp4
    Format                         : MPEG-4
    Format profile                 : Base Media
    Codec ID                       : isom (isom/iso2/avc1/mp41)
    File size                      : 953 MiB
    Duration                       : 2 h 7 min
    Overall bit rate               : 1 041 kb/s
    Movie name                     : Hostiles (2017) - www.Full4movies.co
    Writing application            : Lavf57.83.100

    Video
    ID                             : 1
    Format                         : AVC
    Format/Info                    : Advanced Video Codec
    Format profile                 : [email protected]
    Format settings, CABAC         : Yes
    Format settings, RefFrames     : 4 frames
    Codec ID                       : avc1
    Codec ID/Info                  : Advanced Video Coding
    Duration                       : 2 h 7 min
    Bit rate                       : 911 kb/s
    Width                          : 1 280 pixels
    Height                         : 536 pixels
    Display aspect ratio           : 2.40:1
    Frame rate mode                : Constant
    Frame rate                     : 25.000 FPS
    Color space                    : YUV
    Chroma subsampling             : 4:2:0
    Bit depth                      : 8 bits
    Scan type                      : Progressive
    Bits/(Pixel*Frame)             : 0.053
    Stream size                    : 833 MiB (87%)
    Writing library                : x264 core 152 r2851 ba24899
    Menus                          : 3

    Audio
    ID                             : 2
    Format                         : AAC
    Format/Info                    : Advanced Audio Codec
    Format profile                 : LC
    Codec ID                       : 40
    Duration                       : 2 h 7 min
    Duration_LastFrame             : -1 ms
    Bit rate mode                  : Constant
    Bit rate                       : 125 kb/s
    Channel(s)                     : 2 channels
    Channel positions              : Front: L R
    Sampling rate                  : 48.0 kHz
    Frame rate                     : 46.875 FPS (1024 SPF)
    Compression mode               : Lossy
    Stream size                    : 115 MiB (12%)
    Language                       : English
    Default                        : Yes
    Alternate group                : 1
    Menus                          : 3

    Screen Shoots



    SIMILAR

    TORRENT   UPLOADEDSIZESEEDS LEECHS
    Hostiles.2017.Bluray.1080p.DTS-HD.x264-Grym by vonRicht 3 months 17.98 GB23 152
    Hostiles.2017.HDRip.XviD.AC3-EVO by xxxlavalxxx 4 months 1.50 GB15 3
    Hostiles.2017.HDRip.XviD.AC3-EVO by Supernova 4 months 1.50 GB1 0
    Hostiles.2017.BDRip.x264-GECKOS[EtMovies] by EtHD 4 months 707.40 MB29 14
    Hostiles.2017.HDRip.XviD.AC3-EVO by makintos13 4 months 1.50 GB609 282
    Hostiles.2017.BRRip.XviD.AC3-EVO by TvTeam 4 months 1.48 GB10 6
    Hostiles.2017.1080p.BluRay.x264-GECKOS[EtHD] by EtHD 4 months 9.95 GB1 9

    Torrent Hash: 67C986114A8ACD1C6EC7E8C038080F517B8B7CD6


    Num Trackers: 3 trackers




    TRACKER'S LIST COMPATIBLE WITH BITTORRENT CLIENT


    TrackerSeedersLeechersCompletedUpdated
    http://public.popcorn-tracker.org:6969/announce 3 3 0 4 months
    http://191.96.249.23:6969/announce 2 3 0 4 months
    http://bt.xxx-tracker.com:2710/announce 1 0 0 4 months

    No comments yet.