Hostiles.2018.NEW.720p.HD.CAM.x264.Clean.English.Audio.LLG

seeders: 12     leechers: 6     updated: 6 months ago
Uploaded by LifeLongg6033 , was 6 months ago, day 04/02/2018 09:30:20
Downloaded 117 times, 1.32 GB - 2 files , movies > CAM


Warning! Use a VPN When Downloading Torrents.


Your IP Address is 54.225.55.174 Location is US.
Hide your IP ADDRESS with a VPN!

Get VPN App Mac Now!


    Hostiles.2018.NEW.720p.HD.CAM.x264.Clean.English.Audio.LLG ( 1.32 GB )
    Sample.ts12.20 MB
    Hostiles.2018.NEW.720p.HD.CAM.x264.Clean.English.Audio.LLG.mp41.31 GB

    By the way you can play this film on Mac with Elmedia Player

    ******************************Thumbnail:**********************



    ******************************Screenshots:********************

    Screenshot 1

    Screenshot 2

    Screenshot 3

    Screenshot 4

    Screenshot 5

    Screenshot 6

    Screenshot 7

    Screenshot 8

    Screenshot 9

    Screenshot 0

    **************************************************************

    Complete name                            : Hostiles.2018.NEW.720p.HD.CAM.x264.Clean.English.Audio.LLG
    Format                                   : MPEG-4
    Format profile                           : Base Media
    Codec ID                                 : isom (isom/iso2/avc1/mp41)
    File size                                : 1.31 GiB
    Duration                                 : 2 h 9 min
    Overall bit rate                         : 1 447 kb/s
    Writing application                      : Lavf57.56.101

    Video
    ID                                       : 1
    Format                                   : AVC
    Format/Info                              : Advanced Video Codec
    Format profile                           : [email protected]
    Format settings                          : CABAC / 4 Ref Frames
    Format settings, CABAC                   : Yes
    Format settings, RefFrames               : 4 frames
    Codec ID                                 : avc1
    Codec ID/Info                            : Advanced Video Coding
    Duration                                 : 2 h 9 min
    Bit rate                                 : 1 200 kb/s
    Width                                    : 1 264 pixels
    Height                                   : 512 pixels
    Display aspect ratio                     : 2.469
    Frame rate mode                          : Constant
    Frame rate                               : 23.976 (23976/1000) FPS
    Color space                              : YUV
    Chroma subsampling                       : 4:2:0
    Bit depth                                : 8 bits
    Scan type                                : Progressive
    Bits/(Pixel*Frame)                       : 0.077
    Stream size                              : 1.07 GiB (82%)


    Audio
    ID                                       : 2
    Format                                   : AC-3
    Format/Info                              : Audio Coding 3
    Codec ID                                 : ac-3
    Duration                                 : 2 h 9 min
    Bit rate mode                            : Constant
    Bit rate                                 : 256 kb/s
    Channel(s)                               : 6 channels
    Channel positions                        : Front: L C R, Side: L R, LFE
    Sampling rate                            : 48.0 kHz
    Frame rate                               : 31.250 FPS (1536 SPF)
    Bit depth                                : 16 bits
    Compression mode                         : Lossy
    Stream size                              : 237 MiB (18%)
    Service kind                             : Complete Main
    Default                                  : Yes
    Alternate group                          : 1




    SIMILAR

    TORRENT   UPLOADEDSIZESEEDS LEECHS
    Hostiles.2017.Bluray.1080p.DTS-HD.x264-Grym by vonRicht 3 months 17.98 GB23 152
    Hostiles.2017.HDRip.XviD.AC3-EVO by xxxlavalxxx 4 months 1.50 GB15 3
    Hostiles.2017.HDRip.XviD.AC3-EVO by Supernova 4 months 1.50 GB1 0
    Hostiles.2017.BDRip.x264-GECKOS[EtMovies] by EtHD 4 months 707.40 MB29 14
    Hostiles.2017.BRRip.XviD.AC3-EVO by TvTeam 4 months 1.48 GB10 6
    Hostiles.2017.HDRip.XviD.AC3-EVO by makintos13 4 months 1.50 GB609 282
    Hostiles 2018 Movies HD TS x264 5.1 Clean Audio AAC New +Sample by basicssom 6 months 793.35 MB106 39

    Torrent Hash: 9A0DD80361293CD5838385B9B7FCA99087B18CAD


    Num Trackers: 5 trackers




    TRACKER'S LIST COMPATIBLE WITH BITTORRENT CLIENT


    TrackerSeedersLeechersCompletedUpdated
    udp://tracker.leechers-paradise.org:6969/announce 12 6 0 6 months
    udp://tracker.zer0day.to:1337/announce 12 4 0 6 months
    udp://p4p.arenabg.ch:1337/announce 9 7 0 6 months
    udp://tracker.coppersurfer.tk:6969/announce 9 4 0 6 months
    http://p4p.arenabg.ch:1337/announce 8 8 0 6 months

    No comments yet.