Inferno 2016 HD-CAM x264 2.0-ViVO

seeders: 3 204     leechers: 1 918     atualizado: 4 meses atrás
Enviado por xxxlavalxxx16595 , há 4 meses atrás, dia 22/10/2016 11:32:08
Baixado 238 vezes, com 1.46 GB - 4 arquivos , em filmes > CAM

Anúncio (remover)
Loading...


    Inferno 2016 HD-CAM x264 2.0-ViVO ( 1.46 GB )
    Code.txt2.39 kB
    Inferno 2016 HD-CAM x264 2.0-ViVO.mkv1.44 GB
    Sample.mkv15.36 MB
    Torrent Downloaded From ExtraTorrent.cc.txt0.33 kB

    https://extraimago.com/image/wpTK

    http://www.imdb.com/title/tt3062096/


    When Robert Langdon wakes up in an Italian hospital with amnesia, he teams up with Dr. Sienna Brooks, and together they must race across Europe against the clock to foil a deadly global plot.

    Director: Ron Howard
    Writers: Dan Brown (based on the novel by), David Koepp (screenplay)
    Stars: Tom Hanks, Felicity Jones, Irrfan Khan
    Genres: Action | Adventure | Crime | Drama | Mystery | Thriller
    Country: USA | Japan | Turkey | Hungary
    Language: English


    ::iNFORMATION::
    Language: English
    Source: SPA

    Format           : Matroska
    File size          : 1.44 GiB
    Duration          : 1 h 54 min
    Overall bit rate mode    : Variable
    Overall bit rate      : 1 803 kb/s

    Video
    ID             : 1
    Format           : AVC
    Format/Info         : Advanced Video Codec
    Format profile       : [email protected]/*  */
    Format settings, CABAC   : Yes
    Format settings, ReFrames  : 4 frames
    Codec ID          : V_MPEG4/ISO/AVC
    Duration          : 1 h 54 min
    Bit rate mode        : Variable
    Bit rate          : 1 609 kb/s
    Maximum bit rate      : 62.5 Mb/s
    Width            : 720 pixels
    Height           : 396 pixels
    Display aspect ratio    : 16:9
    Frame rate mode       : Constant
    Frame rate         : 29.970 (30000/1001) FPS
    Color space         : YUV
    Chroma subsampling     : 4:2:0
    Bit depth          : 8 bits
    Scan type          : Progressive
    Bits/(Pixel*Frame)     : 0.188
    Stream size         : 1.29 GiB (89%)
    Default           : Yes
    Forced           : No
    Color range         : Full
    Color primaries       : BT.709
    Transfer characteristics  : BT.709
    Matrix coefficients     : BT.709

    Audio
    ID             : 2
    Format           : MPEG Audio
    Format version       : Version 1
    Format profile       : Layer 3
    Codec ID          : A_MPEG/L3
    Codec ID/Hint        : MP3
    Duration          : 1 h 54 min
    Bit rate mode        : Constant
    Bit rate          : 192 kb/s
    Channel(s)         : 2 channels
    Sampling rate        : 44.1 kHz
    Frame rate         : 38.281 FPS (1152 spf)
    Compression mode      : Lossy
    Delay relative to video   : 5 ms
    Stream size         : 157 MiB (11%)
    Writing library       : LAME3.99.5
    Default           : Yes
    Forced           : No


    https://extraimago.com/image/wpTY
    https://extraimago.com/image/wpTp
    https://extraimago.com/image/wpTr
    https://extraimago.com/image/wpTG
    https://extraimago.com/image/wpTP
    https://extraimago.com/image/wpTX



    SIMILARES

    TORRENT   ENVIADOTAMANHOSEEDS LEECHS
    Inferno.2016.BluRay.1080p.DTS.x264-PRoDJi[EtHD] 3 semanas 9.45 GB46 48
    Inferno.2016.HDRip.XviD.AC3-EVO 2 meses 1.41 GB530 226
    Inferno.2016.BRRip.XviD.AC3-EVO 1 mês 1.40 GB13 13
    Inferno.2016.BRRip.XViD.AC3-ETRG 1 mês 1.40 GB993 673
    Inferno (2016) x264 720p BluRay Eng Subs {Dual Audio} [Hindi DD 1 semana 1.19 GB1 698 2 170
    Inferno.2016.HDRip.XViD.AC3-ETRG 2 meses 1.37 GB1 559 1 176
    Inferno.2016.1080p.WEB-DL.H264.AC3-EVO[EtHD] 2 meses 4.71 GB1 318 1 804

    Torrent Hash: DAFC41B861A66514A694465ED3D1B26D6E9F554A


    Num Trackers: 7 trackers




    LISTA DE TRACKERS PARA CLIENTE BITTORRENT


    TrackerSeedersLeechersCompletoAtualizado
    udp://tracker.coppersurfer.tk:6969/announce 3 204 1 918 0 4 meses
    udp://tracker.leechers-paradise.org:6969/announce 2 394 1 502 0 4 meses
    udp://tracker.opentrackr.org:1337/announce 2 153 1 399 0 4 meses
    udp://tracker.zer0day.to:1337/announce 2 135 1 326 0 4 meses
    udp://p4p.arenabg.ch:1337/announce 1 673 1 208 0 4 meses
    udp://tracker.mg64.net:2710/announce 24 14 0 4 meses
    udp://tracker.sktorrent.net:6969/announce 7 8 0 4 meses

    Nenhum Comentário Ainda








Anúncio (remover)