Inmate.Zero.2019.720p.WEB-DL.H264.AC3.LLG

seeders: 3     leechers: 2     updated: 8 months ago

Downloading Seeding from 0 peers
of -
0 b/s / 0 b/s
    Inmate.Zero.2019.720p.WEB-DL.H264.AC3.LLG ( 1.44 GB )
    SAMPLE.ts11.44 MB
    Inmate.Zero.2019.720p.WEB-DL.H264.AC3.LLG.mp41.43 GB

    quote:




    ******************************Thumbnail:**********************




    ******************************Screenshots:********************

    Screenshot 1

    Screenshot 2

    Screenshot 3

    Screenshot 4

    Screenshot 5

    Screenshot 6

    Screenshot 7

    Screenshot 8

    Screenshot 9

    Screenshot 0

    **********************************************************

    Inmate.Zero.2019.720p.WEB-DL.H264.AC3.LLG.mp4
    Format                                   : MPEG-4
    Format profile                           : Base Media
    Codec ID                                 : isom (isom/iso2/avc1/mp41)
    File size                                : 1.43 GiB
    Duration                                 : 1 h 46 min
    Overall bit rate mode                    : Variable
    Overall bit rate                         : 1 918 kb/s
    Writing application                      : Lavf57.83.100

    Video
    ID                                       : 1
    Format                                   : AVC
    Format/Info                              : Advanced Video Codec
    Format profile                           : [email protected]
    Format settings                          : CABAC / 1 Ref Frames
    Format settings, CABAC                   : Yes
    Format settings, Reference frames        : 1 frame
    Codec ID                                 : avc1
    Codec ID/Info                            : Advanced Video Coding
    Duration                                 : 1 h 46 min
    Bit rate mode                            : Variable
    Bit rate                                 : 1 531 kb/s
    Maximum bit rate                         : 4 500 kb/s
    Width                                    : 1 280 pixels
    Height                                   : 530 pixels
    Display aspect ratio                     : 2.40:1
    Frame rate mode                          : Constant
    Frame rate                               : 23.976 (23976/1000) FPS
    Color space                              : YUV
    Chroma subsampling                       : 4:2:0
    Bit depth                                : 8 bits
    Scan type                                : Progressive
    Bits/(Pixel*Frame)                       : 0.094
    Stream size                              : 1.14 GiB (80%)
    Language                                 : English
    Menus                                    : 3
    Codec configuration box                  : avcC

    Audio
    ID                                       : 2
    Format                                   : AC-3
    Format/Info                              : Audio Coding 3
    Commercial name                          : Dolby Digital
    Codec ID                                 : ac-3
    Duration                                 : 1 h 46 min
    Bit rate mode                            : Constant
    Bit rate                                 : 384 kb/s
    Channel(s)                               : 6 channels
    Channel layout                           : L R C LFE Ls Rs
    Sampling rate                            : 48.0 kHz
    Frame rate                               : 31.250 FPS (1536 SPF)
    Compression mode                         : Lossy
    Stream size                              : 293 MiB (20%)
    Language                                 : English
    Service kind                             : Complete Main



    **********************************************************






    SIMILAR

    TORRENT   UPLOADEDSIZESEEDS LEECHS
    Inmate.Zero.2019.HDRip.XviD.AC3-EVO by xxxlavalxxx 9 months 1.34 GB28 0
    Inmate.Zero.2020.DVDRip.x264-RedBlade by TvTeam 1 month 484.01 MB11 2
    Inmate Zero (2019) 1080p WEBRip x264 - YIFY by YIFY 9 months 1.84 GB168 31
    Inmate Zero (2019) 720p WEBRip x264 - YIFY by YIFY 9 months 943.68 MB219 50
    Inmate.Zero.2019.1080p.WEB-DL.H264.AC3-EVO[TGx] by sotnikam 9 months 3.69 GB3 1
    Inmate.Zero.2019.HDRip.XviD.AC3-EVO[TGx] by sotnikam 9 months 1.34 GB20 0
    Inmate.Zero.2019.1080p.WEB-DL.H264.AC3-EVO[EtHD] by EtHD 9 months 3.69 GB6 2

    Torrent Hash: BA0874E1103292A29A2BB89C9C23A9F0D124B20A


    Num Trackers: 9 trackers




    TRACKER'S LIST COMPATIBLE WITH BITTORRENT CLIENT


    TrackerSeedersLeechersCompletedUpdated
    udp://retracker.lanta-net.ru:2710/announce 0 1 0 8 months
    udp://tracker.leechers-paradise.org:6969/announce 0 1 0 8 months
    udp://tracker.coppersurfer.tk:6969/announce 1 0 0 8 months
    http://bt1.archive.org:6969/announce 0 1 0 8 months
    udp://tracker.pirateparty.gr:6969/announce 0 1 0 8 months
    udp://tracker.leechers-paradise.org:6969 3 2 0 8 months
    udp://tracker.coppersurfer.tk:6969 1 0 0 8 months
    http://bt1.archive.org:6969/announce 0 1 0 8 months
    http://bt2.archive.org:6969/announce 0 0 0 8 months

    No comments yet.