Jigsaw.2017.720p.WEB-DL.6CH.AAC.LLG

seeders: 31     leechers: 11     updated: 10 hours ago
Uploaded by LifeLongg1181 , was 6 days ago, day 10/01/2018 14:05:07
Downloaded 40 times, 1.03 GB - 2 files , filmes > WebDL


Warning! Use a VPN When Downloading Torrents.


Your IP Address is 54.234.190.237 Location is US.
Hide your IP ADDRESS with a VPN!

Get VPN App Mac Now!


    Jigsaw.2017.720p.WEB-DL.6CH.AAC.LLG ( 1.03 GB )
    Sample.mp425.18 MB
    Jigsaw.2017.720p.WEB-DL.6CH.AAC.LLG.mp41.00 GB

    By the way you can play this film on Mac with Elmedia Player

    ******************************Thumbnail:**********************



    ******************************Screenshots:********************

    Screenshot 1

    Screenshot 2

    Screenshot 3

    Screenshot 4

    Screenshot 5

    Screenshot 6

    Screenshot 7

    Screenshot 8

    Screenshot 9

    Screenshot 0

    **************************************************************

    Complete name                            : Jigsaw.2017.720p.WEB-DL.6CH.AAC.LLG.mp4
    Format                                   : MPEG-4
    Format profile                           : Base Media
    Codec ID                                 : isom (isom/iso2/avc1/mp41)
    File size                                : 1.00 GiB
    Duration                                 : 1 h 32 min
    Overall bit rate                         : 1 553 kb/s
    Writing application                      : Lavf57.56.101

    Video
    ID                                       : 1
    Format                                   : AVC
    Format/Info                              : Advanced Video Codec
    Format profile                           : [email protected]
    Format settings                          : CABAC / 4 Ref Frames
    Format settings, CABAC                   : Yes
    Format settings, RefFrames               : 4 frames
    Codec ID                                 : avc1
    Codec ID/Info                            : Advanced Video Coding
    Duration                                 : 1 h 32 min
    Bit rate                                 : 1 500 kb/s
    Width                                    : 1 280 pixels
    Height                                   : 536 pixels
    Display aspect ratio                     : 2.40:1
    Frame rate mode                          : Constant
    Frame rate                               : 23.976 (23976/1000) FPS
    Color space                              : YUV
    Chroma subsampling                       : 4:2:0
    Bit depth                                : 8 bits
    Scan type                                : Progressive
    Bits/(Pixel*Frame)                       : 0.091
    Stream size                              : 978 MiB (95%)


    Audio
    ID                                       : 2
    Format                                   : AAC
    Format/Info                              : Advanced Audio Codec
    Format profile                           : LC
    Codec ID                                 : mp4a-40-2
    Duration                                 : 1 h 32 min
    Bit rate mode                            : Constant
    Bit rate                                 : 64.4 kb/s
    Channel(s)                               : 2 channels
    Channel(s)_Original                      : 6 channels
    Channel positions                        : Front: L C R, Side: L R, LFE
    Sampling rate                            : 48.0 kHz
    Frame rate                               : 46.875 FPS (1024 SPF)
    Compression mode                         : Lossy
    Stream size                              : 42.4 MiB (4%)
    Language                                 : English
    Default                                  : Yes
    Alternate group                          : 1



    SIMILAR

    TORRENT   UPLOADEDSIZESEEDS LEECHS
    Jigsaw.2017.BDRip.x264-GECKOS[EtMovies] by EtHD 1 day 407.07 MB20 7
    Jigsaw.2017.720p.BluRay.x264-GECKOS[EtHD] by EtHD 1 day 4.38 GB44 27
    Jigsaw.2017.BRRip.XviD.AC3-EVO[EtMovies] by EtHD 1 day 1.29 GB10 8
    Jigsaw.2017.HDRip.XviD.AC3-EVO[EtMovies] by EtHD 1 week 1.35 GB55 57
    Jigsaw.2017.WEB-DL.x264-FGT [800MB] by makintos13 1 week 797.61 MB65 58
    Jigsaw.2017.720p.WEB-DL.H264.AC3-EVO[EtHD] by EtHD 1 week 2.89 GB128 204
    Jigsaw.2017.HDRip.XviD.AC3-EVO by xxxlavalxxx 1 week 1.35 GB1 341 1 323

    Torrent Hash: 70002C8D585E1A9BA46F3D364FBD4D2C3AE76A3B


    Num Trackers: 16 trackers




    TRACKER'S LIST COMPATIBLE WITH BITTORRENT CLIENT


    TrackerSeedersLeechersCompletedUpdated
    udp://tracker.coppersurfer.tk:6969/announce 31 11 0 6 days
    udp://tracker.pirateparty.gr:6969/announce 30 20 0 6 days
    udp://tracker.opentrackr.org:1337 25 21 0 5 days
    udp://tracker.leechers-paradise.org:6969/announce 25 15 0 6 days
    udp://tracker.leechers-paradise.org:6969 21 26 0 5 days
    udp://tracker.coppersurfer.tk:6969 16 18 0 5 days
    udp://tracker.zer0day.to:1337/announce 7 13 0 6 days
    udp://eddie4.nl:6969 7 9 0 5 days
    udp://inferno.demonoid.pw:3399/announce 5 6 0 5 days
    http://tracker.mg64.net:6881/announce 5 6 0 5 days
    udp://9.rarbg.to:2710 5 6 0 5 days
    udp://tracker.zer0day.to:1337 5 5 0 5 days
    udp://p4p.arenabg.ch:1337 3 7 0 5 days
    udp://public.popcorn-tracker.org:6969 3 2 0 5 days
    http://tracker.mgtracker.org:2710/announce 2 3 0 6 days
    http://mgtracker.org:2710/announce 0 0 0 5 days

    No comments yet.