Journeys End 2017 1080p BluRay x264 DTS [MW]

seeders: 7     leechers: 2     updated: 4 months ago

Downloading Seeding from 0 peers
of -
0 b/s / 0 b/s

Warning! Use a VPN When Downloading Torrents.


Your IP Address is 54.224.56.126 Location is US.
Hide your IP ADDRESS with a VPN!

Get VPN App Mac Now!


    Journeys End 2017 1080p BluRay x264 DTS [MW] ( 2.39 GB )
    Journeys End 2017 1080p BluRay x264 DTS [MW].mkv2.39 GB

    By the way you can play this film on Mac with Elmedia Player





    General
    Format                                   : Matroska
    Format version                           : Version 4 / Version 2
    File size                                : 2.39 GiB
    Duration                                 : 1 h 47 min
    Overall bit rate                         : 3 178 kb/s

    Video
    ID                                       : 1
    Format                                   : AVC
    Format/Info                              : Advanced Video Codec
    Format profile                           : [email protected]
    Format settings                          : CABAC / 4 Ref Frames
    Format settings, CABAC                   : Yes
    Format settings, RefFrames               : 4 frames
    Codec ID                                 : V_MPEG4/ISO/AVC
    Duration                                 : 1 h 47 min
    Bit rate                                 : 2 500 kb/s
    Width                                    : 1 920 pixels
    Height                                   : 800 pixels
    Display aspect ratio                     : 2.40:1
    Frame rate mode                          : Constant
    Frame rate                               : 24.000 FPS
    Color space                              : YUV
    Chroma subsampling                       : 4:2:0
    Bit depth                                : 8 bits
    Scan type                                : Progressive
    Bits/(Pixel*Frame)                       : 0.068
    Stream size                              : 1.81 GiB (76%)
    Writing library                          : x264 core 155 r2893 b00bcaf
    Default                                  : Yes
    Forced                                   : No

    Audio
    ID                                       : 2
    Format                                   : DTS
    Format/Info                              : Digital Theater Systems
    Codec ID                                 : A_DTS
    Duration                                 : 1 h 47 min
    Bit rate mode                            : Constant
    Bit rate                                 : 768 kb/s
    Channel(s)                               : 6 channels
    Channel positions                        : Front: L C R, Side: L R, LFE
    Sampling rate                            : 48.0 kHz
    Frame rate                               : 93.750 FPS (512 SPF)
    Bit depth                                : 24 bits
    Compression mode                         : Lossy
    Stream size                              : 592 MiB (24%)
    Language                                 : English
    Default                                  : Yes
    Forced                                   : No

    Text #1
    ID                                       : 3
    Format                                   : UTF-8
    Codec ID                                 : S_TEXT/UTF8
    Codec ID/Info                            : UTF-8 Plain Text
    Duration                                 : 1 h 37 min
    Bit rate                                 : 47 b/s
    Count of elements                        : 1105
    Stream size                              : 33.6 KiB (0%)
    Language                                 : English
    Default                                  : No
    Forced                                   : No

    Text #2
    ID                                       : 4
    Format                                   : UTF-8
    Codec ID                                 : S_TEXT/UTF8
    Codec ID/Info                            : UTF-8 Plain Text
    Duration                                 : 1 h 38 min
    Bit rate                                 : 51 b/s
    Count of elements                        : 1220
    Stream size                              : 37.2 KiB (0%)
    Title                                    : SDH
    Language                                 : English
    Default                                  : No
    Forced                                   : No

    Menu
    00:00:00.000                             : en:00:00:00.000
    00:07:56.417                             : en:00:07:56.417
    00:16:49.500                             : en:00:16:49.500
    00:26:05.583                             : en:00:26:05.583
    00:34:21.500                             : en:00:34:21.500
    00:43:53.542                             : en:00:43:53.542
    00:51:38.042                             : en:00:51:38.042
    00:59:17.958                             : en:00:59:17.958
    01:08:51.250                             : en:01:08:51.250
    01:15:47.417                             : en:01:15:47.417
    01:24:44.750                             : en:01:24:44.750
    01:32:01.333                             : en:01:32:01.333







    https://pichub.site/image/Mlvxt
    https://pichub.site/image/MlxT4
    https://pichub.site/image/MlLDp
    https://pichub.site/image/Mlrmy
    https://pichub.site/image/Mlonb
    https://pichub.site/image/Ml2Y0




    SIMILAR

    TORRENT   UPLOADEDSIZESEEDS LEECHS
    Journeys.End.2018.HDRip.XviD.AC3-EVO by xxxlavalxxx 6 months 1.37 GB25 8
    Journeys.End.2017.BDRip.X264-AMIABLE by TvTeam 5 months 493.24 MB5 1
    Journeys.End.2018.BRRip.XviD.AC3-EVO by TvTeam 5 months 1.38 GB11 3
    Journeys.End.2017.BDRip.X264-AMIABLE[EtMovies] by EtHD 5 months 496.20 MB15 4
    Journeys.End.2018.HDRip.XviD.AC3-EVO by Supernova 6 months 1.37 GB1 0
    Journeys.End.2017.720p.BluRay.X264-AMIABLE[EtHD] by EtHD 5 months 4.42 GB22 16
    Journeys.End.2018.BRRip.XviD.AC3-EVO[EtMovies] by EtHD 5 months 1.38 GB173 61

    Torrent Hash: 0006892FF1BF7E3D4B5168D95A9792BA90F22BE6


    Num Trackers: 9 trackers




    TRACKER'S LIST COMPATIBLE WITH BITTORRENT CLIENT


    TrackerSeedersLeechersCompletedUpdated
    udp://tracker.coppersurfer.tk:6969 7 2 0 4 months
    udp://tracker.opentrackr.org:1337 5 4 0 4 months
    udp://tracker.leechers-paradise.org:6969 4 2 0 4 months
    http://tracker.mg64.net:6881/announce 2 0 0 4 months
    http://mgtracker.org:2710/announce 2 0 0 4 months
    http://retracker.spb.ru/announce 1 1 0 4 months
    http://announce.xxx-tracker.com:2710/announce 1 0 0 4 months
    http://open.acgtracker.com:1096/announce 1 0 0 4 months
    http://tracker1.itzmx.com:8080/announce 0 0 0 4 months

    No comments yet.