Loving Vincent 2017 720p WEB-DL X264

seeders: 10     leechers: 4     updated: 1 month ago
Uploaded by MovieFreak3266 , was 2 months ago, day 14/11/2017 10:52:07
Downloaded 56 times, 1.05 GB - 1 file , filmes > WebDL


Warning! Use a VPN When Downloading Torrents.


Your IP Address is 54.234.190.237 Location is US.
Hide your IP ADDRESS with a VPN!

Get VPN App Mac Now!


    Loving Vincent 2017 720p WEB-DL X264 ( 1.05 GB )
    Loving Vincent 2017 720p WEB-DL X264.mkv1.05 GB

    By the way you can play this film on Mac with Elmedia Player






    General
    Format                                   : Matroska
    Format version                           : Version 4 / Version 2
    File size                                : 1.05 GiB
    Duration                                 : 1 h 34 min
    Overall bit rate                         : 1 590 kb/s

    Video
    ID                                       : 1
    Format                                   : AVC
    Format/Info                              : Advanced Video Codec
    Format profile                           : [email protected]
    Format settings                          : CABAC / 4 Ref Frames
    Format settings, CABAC                   : Yes
    Format settings, RefFrames               : 4 frames
    Codec ID                                 : V_MPEG4/ISO/AVC
    Duration                                 : 1 h 34 min
    Bit rate                                 : 1 500 kb/s
    Width                                    : 1 280 pixels
    Height                                   : 514 pixels
    Display aspect ratio                     : 2.490
    Frame rate mode                          : Constant
    Frame rate                               : 24.000 FPS
    Color space                              : YUV
    Chroma subsampling                       : 4:2:0
    Bit depth                                : 8 bits
    Scan type                                : Progressive
    Bits/(Pixel*Frame)                       : 0.095
    Stream size                              : 987 MiB (92%)
    Writing library                          : x264 core 148 r2643 5c65704
    Default                                  : Yes
    Forced                                   : No

    Audio
    ID                                       : 2
    Format                                   : AAC
    Format/Info                              : Advanced Audio Codec
    Format profile                           : LC
    Codec ID                                 : A_AAC-2
    Duration                                 : 1 h 34 min
    Bit rate                                 : 128 kb/s
    Channel(s)                               : 2 channels
    Channel positions                        : Front: L R
    Sampling rate                            : 44.1 kHz
    Frame rate                               : 43.066 FPS (1024 SPF)
    Compression mode                         : Lossy
    Stream size                              : 86.5 MiB (8%)
    Language                                 : English
    Default                                  : Yes
    Forced                                   : No

    Menu
    00:00:00.000                             : en:1
    00:03:55.005                             : en:2
    00:13:46.047                             : en:3
    00:22:49.047                             : en:4
    00:33:50.047                             : en:5
    00:43:27.005                             : en:6
    00:50:59.005                             : en:7
    01:01:55.047                             : en:8
    01:08:06.005                             : en:9
    01:18:56.047                             : en:10
    01:28:16.005                             : en:11



















    SIMILAR

    TORRENT   UPLOADEDSIZESEEDS LEECHS
    St. Vincent - MASSEDUCTION (2017) (Mp3 320kbps) [Hunter] by kajalsus 3 months 96.69 MB216 3
    Loving Vincent.2017.HDRip.XviD.AC3-EVO by xxxlavalxxx 2 months 1.40 GB11 2
    Loving.Vincent.2017.1080p.WEB-DL.H264.AC3-EVO by Supernova 2 months 3.26 GB10 6
    Loving Vincent.2017.BRRip.XviD.AC3-EVO[EtMovies] by EtHD 1 week 1.37 GB28 6
    Loving Vincent (2017) 720p BrRip x264 - YIFY by YIFY 1 week 697.25 MB688 92
    Loving Vincent (2017) 1080p BrRip x264 - YIFY by YIFY 1 week 1.44 GB1 076 142
    Loving Vincent.2017.720p.WEB-DL.X264.AC3-EVO[EtHD] by EtHD 2 months 2.44 GB9 3

    Torrent Hash: D4336CDE2CA3D5AF51A36C0CFE7ADB73CF46F8A1


    Num Trackers: 5 trackers




    TRACKER'S LIST COMPATIBLE WITH BITTORRENT CLIENT


    TrackerSeedersLeechersCompletedUpdated
    udp://tracker.coppersurfer.tk:6969/announce 10 4 0 1 month
    udp://tracker.pirateparty.gr:6969/announce 2 6 0 1 month
    udp://tracker.leechers-paradise.org:6969/announce 1 3 0 1 month
    udp://tracker.zer0day.to:1337/announce 1 2 0 1 month
    udp://tracker.mgtracker.org:2710/announce 0 2 0 1 month

    No comments yet.