NASCAR 2019 MECS AAA Texas 500 HDTV x264 720

seeders: 8     leechers: 1     updated: 2 days ago

Downloading Seeding from 0 peers
of -
0 b/s / 0 b/s
    NASCAR 2019 MECS AAA Texas 500 HDTV x264 720 ( 4.50 GB )
    Downloaded from.txt0.06 kB
    nascar.txt3.88 kB
    NASCAR 2019 MECS AAA Texas 500 HDTV x264 720.mkv4.50 GB

    Nascar 2019 Monster Energy Series

    Texas Motor Speedway
    Sunday, November 3
    3:00 PM ET






    General
    Complete name                            : NASCAR 2019 MECS AAA Texas 500 HDTV x264 720.mkv
    Format                                   : Matroska
    Format version                           : Version 4
    File size                                : 4.50 GiB
    Duration                                 : 3 h 15 min
    Overall bit rate                         : 3 302 kb/s
    Encoded date                             : UTC 2019-11-04 01:13:47
    Writing application                      : mkvmerge v28.2.0 ('The Awakening') 64-bit
    Writing library                          : libebml v1.3.6 + libmatroska v1.4.9

    Video
    ID                                       : 1
    Format                                   : AVC
    Format/Info                              : Advanced Video Codec
    Format profile                           : [email protected]
    Format settings                          : CABAC / 5 Ref Frames
    Format settings, CABAC                   : Yes
    Format settings, RefFrames               : 5 frames
    Codec ID                                 : V_MPEG4/ISO/AVC
    Duration                                 : 3 h 15 min
    Bit rate                                 : 2 914 kb/s
    Width                                    : 1 280 pixels
    Height                                   : 720 pixels
    Display aspect ratio                     : 16:9
    Frame rate mode                          : Constant
    Frame rate                               : 59.940 (59940/1000) FPS
    Original frame rate                      : 59.940 (60000/1001) FPS
    Color space                              : YUV
    Chroma subsampling                       : 4:2:0
    Bit depth                                : 8 bits
    Scan type                                : Progressive
    Bits/(Pixel*Frame)                       : 0.053
    Stream size                              : 3.97 GiB (88%)
    Writing library                          : x264 core 148 r2744 b97ae06
    Default                                  : Yes
    Forced                                   : No

    Audio
    ID                                       : 2
    Format                                   : AC-3
    Format/Info                              : Audio Coding 3
    Commercial name                          : Dolby Digital
    Codec ID                                 : A_AC3
    Duration                                 : 3 h 15 min
    Bit rate mode                            : Constant
    Bit rate                                 : 384 kb/s
    Channel(s)                               : 6 channels
    Channel layout                           : L R C LFE Ls Rs
    Sampling rate                            : 48.0 kHz
    Frame rate                               : 31.250 FPS (1536 SPF)
    Bit depth                                : 16 bits
    Compression mode                         : Lossy
    Stream size                              : 536 MiB (12%)
    Language                                 : new
    Service kind                             : Complete Main
    Default                                  : Yes
    Forced                                   : No



    SIMILAR

    TORRENT   UPLOADEDSIZESEEDS LEECHS
    NASCAR 2019 MECS Monster Energy Nascar All-Star Race Charlotte HDTV x264 720 by HackRF 6 months 3.40 GB9 1
    NASCAR 2019 MECS Daytona 500 HDTV x264 720 by HackRF 9 months 5.42 GB24 3
    NASCAR 2019 MECS STP-500 Martinsville HDTV x264 720 by HackRF 8 months 5.11 GB30 14
    Nascar.Raceday.2019.05.03.720p.WEB.h264-LiGATE[TGx] by sotnikam 7 months 712.30 MB1 0
    NASCAR 2019 MECS Pennzoil 400 Las Vegas HDTV x264 720 by HackRF 9 months 2.98 GB8 14
    NASCAR 2019 MECS TicketGuardian 500 Phoenix HDTV x264 720 by HackRF 9 months 3.99 GB5 0
    NASCAR 2019 MECS First Data 500 Martinsville HDTV x264 720 by HackRF 3 weeks 5.03 GB4 1

    Torrent Hash: EA4EBE52D759DFC86402D28023282CA60C1D4146


    Num Trackers: 6 trackers




    TRACKER'S LIST COMPATIBLE WITH BITTORRENT CLIENT


    TrackerSeedersLeechersCompletedUpdated
    udp://tracker.coppersurfer.tk:6969/announce 8 1 0 2 days
    udp://tracker.pirateparty.gr:6969/announce 6 2 0 2 days
    http://tracker.gbitt.info:80/announce 4 0 0 2 days
    udp://tracker.moeking.me:6969/announce 2 0 0 2 days
    udp://tracker.leechers-paradise.org:6969/announce 3 1 0 2 days
    udp://denis.stalker.upeer.me:6969/announce 2 0 0 2 days