NASCAR 2019 MECS O’Reilly Auto Parts 500 HDTV x264 720

seeders: 9     leechers: 1     updated: 5 months ago

Downloading Seeding from 0 peers
of -
0 b/s / 0 b/s

Warning! Use a VPN When Downloading Torrents.


Your IP Address is 18.206.16.123 Location is US.
Hide your IP ADDRESS with a VPN!

Get VPN App Mac Now!


    NASCAR 2019 MECS O’Reilly Auto Parts 500 HDTV x264 720 ( 3.95 GB )
    Downloaded From.txt0.15 kB
    nascar.txt3.95 kB
    NASCAR 2019 MECS O’Reilly Auto Parts 500 HDTV x264 720.mkv3.95 GB

    By the way you can play this film on Mac with Elmedia Player

    Nascar 2019 Monster Energy Series

    O’Reilly Auto Parts 500
    Texas Motor Speedway
    Sunday, Mar 31
    3:00 PM
    FS1







    General
    Complete name                            : NASCAR 2019 MECS O’Reilly Auto Parts 500 HDTV x264 720.mkv
    Format                                   : Matroska
    Format version                           : Version 4 / Version 2
    File size                                : 3.95 GiB
    Duration                                 : 2 h 34 min
    Overall bit rate                         : 3 663 kb/s
    Encoded date                             : UTC 2019-03-31 23:47:59
    Writing application                      : mkvmerge v15.0.0 ('Duel with the Devil') 64-bit
    Writing library                          : libebml v1.3.5 + libmatroska v1.4.5

    Video
    ID                                       : 1
    Format                                   : AVC
    Format/Info                              : Advanced Video Codec
    Format profile                           : [email protected]
    Format settings, CABAC                   : Yes
    Format settings, RefFrames               : 5 frames
    Codec ID                                 : V_MPEG4/ISO/AVC
    Duration                                 : 2 h 34 min
    Bit rate                                 : 3 275 kb/s
    Width                                    : 1 280 pixels
    Height                                   : 720 pixels
    Display aspect ratio                     : 16:9
    Frame rate mode                          : Constant
    Frame rate                               : 59.940 (60000/1001) FPS
    Color space                              : YUV
    Chroma subsampling                       : 4:2:0
    Bit depth                                : 8 bits
    Scan type                                : Progressive
    Bits/(Pixel*Frame)                       : 0.059
    Stream size                              : 3.53 GiB (89%)
    Writing library                          : x264 core 148 r2744 b97ae06
    Default                                  : Yes
    Forced                                   : No

    Audio
    ID                                       : 2
    Format                                   : AC-3
    Format/Info                              : Audio Coding 3
    Format settings, Endianness              : Big
    Codec ID                                 : A_AC3
    Duration                                 : 2 h 34 min
    Bit rate mode                            : Constant
    Bit rate                                 : 384 kb/s
    Channel(s)                               : 6 channels
    Channel positions                        : Front: L C R, Side: L R, LFE
    Sampling rate                            : 48.0 kHz
    Frame rate                               : 31.250 FPS (1536 SPF)
    Bit depth                                : 16 bits
    Compression mode                         : Lossy
    Stream size                              : 424 MiB (10%)
    Language                                 : new
    Service kind                             : Complete Main
    Default                                  : Yes
    Forced                                   : No



    SIMILAR

    TORRENT   UPLOADEDSIZESEEDS LEECHS
    NASCAR 2019 MECS Monster Energy Nascar All-Star Race Charlotte HDTV x264 720 by HackRF 4 months 3.40 GB9 1
    NASCAR 2019 MECS Daytona 500 HDTV x264 720 by HackRF 7 months 5.42 GB24 3
    NASCAR 2019 MECS STP-500 Martinsville HDTV x264 720 by HackRF 6 months 5.11 GB30 14
    Nascar.Raceday.2019.05.03.720p.WEB.h264-LiGATE[TGx] by sotnikam 4 months 712.30 MB1 0
    NASCAR 2019 MECS Pennzoil 400 Las Vegas HDTV x264 720 by HackRF 7 months 2.98 GB8 14
    NASCAR 2019 MECS TicketGuardian 500 Phoenix HDTV x264 720 by HackRF 6 months 3.99 GB5 0
    NASCAR 2019 MECS Talladega GEICO 500 HDTV x264 720 by HackRF 5 months 3.78 GB6 35

    Torrent Hash: 6DD9824E4EE3689BE6F59B4516517E28CF797AF3


    Num Trackers: 2 trackers




    TRACKER'S LIST COMPATIBLE WITH BITTORRENT CLIENT


    TrackerSeedersLeechersCompletedUpdated
    udp://thetracker.org:80/announce 6 0 0 5 months
    udp://tracker.pirateparty.gr:6969/announce 9 1 0 5 months

    No comments yet.