NASCAR 2019 MECS Pennzoil 400 Las Vegas HDTV x264 720

seeders: 8     leechers: 14     updated: 6 months ago

Downloading Seeding from 0 peers
of -
0 b/s / 0 b/s

Warning! Use a VPN When Downloading Torrents.


Your IP Address is 18.206.16.123 Location is US.
Hide your IP ADDRESS with a VPN!

Get VPN App Mac Now!


    NASCAR 2019 MECS Pennzoil 400 Las Vegas HDTV x264 720 ( 2.98 GB )
    Downloaded from 1337x.to.txt0.33 kB
    Downloaded from pirateiro.co.txt0.74 kB
    nascar.txt4.04 kB
    Downloaded from katcr.co.txt5.98 kB
    NASCAR 2019 MECS Pennzoil 400 Las Vegas HDTV x264 720.mkv2.98 GB

    By the way you can play this film on Mac with Elmedia Player

    Nascar 2018 Monster Energy Series


    Las Vegas Motor Speedway
    Pennzoil 400 presented by Jiffy Lube
    Sunday, March 3 | 3:30 PM ET
    3:00 PM
    FS1







    General
    Complete name                            : NASCAR 2019 MECS Pennzoil 400 Las Vegas HDTV x264 720.mkv
    Format                                   : Matroska
    Format version                           : Version 4 / Version 2
    File size                                : 2.98 GiB
    Duration                                 : 2 h 1 min
    Overall bit rate                         : 3 506 kb/s
    Encoded date                             : UTC 2019-03-03 23:57:54
    Writing application                      : mkvmerge v15.0.0 ('Duel with the Devil') 64-bit
    Writing library                          : libebml v1.3.5 + libmatroska v1.4.5

    Video
    ID                                       : 1
    Format                                   : AVC
    Format/Info                              : Advanced Video Codec
    Format profile                           : [email protected]
    Format settings, CABAC                   : Yes
    Format settings, RefFrames               : 5 frames
    Codec ID                                 : V_MPEG4/ISO/AVC
    Duration                                 : 2 h 1 min
    Bit rate                                 : 3 119 kb/s
    Width                                    : 1 280 pixels
    Height                                   : 720 pixels
    Display aspect ratio                     : 16:9
    Frame rate mode                          : Constant
    Frame rate                               : 59.940 (59940/1000) FPS
    Original frame rate                      : 59.940 (60000/1001) FPS
    Color space                              : YUV
    Chroma subsampling                       : 4:2:0
    Bit depth                                : 8 bits
    Scan type                                : Progressive
    Bits/(Pixel*Frame)                       : 0.056
    Stream size                              : 2.65 GiB (89%)
    Writing library                          : x264 core 148 r2744 b97ae06
    Default                                  : Yes
    Forced                                   : No

    Audio
    ID                                       : 2
    Format                                   : AC-3
    Format/Info                              : Audio Coding 3
    Format settings, Endianness              : Big
    Codec ID                                 : A_AC3
    Duration                                 : 2 h 1 min
    Bit rate mode                            : Constant
    Bit rate                                 : 384 kb/s
    Channel(s)                               : 6 channels
    Channel positions                        : Front: L C R, Side: L R, LFE
    Sampling rate                            : 48.0 kHz
    Frame rate                               : 31.250 FPS (1536 SPF)
    Bit depth                                : 16 bits
    Compression mode                         : Lossy
    Stream size                              : 334 MiB (11%)
    Language                                 : new
    Service kind                             : Complete Main
    Default                                  : Yes
    Forced                                   : No



    SIMILAR

    TORRENT   UPLOADEDSIZESEEDS LEECHS
    NASCAR 2019 MECS Monster Energy Nascar All-Star Race Charlotte HDTV x264 720 by HackRF 4 months 3.40 GB9 1
    NASCAR 2019 MECS Daytona 500 HDTV x264 720 by HackRF 7 months 5.42 GB24 3
    NASCAR 2019 MECS STP-500 Martinsville HDTV x264 720 by HackRF 6 months 5.11 GB30 14
    Nascar.Raceday.2019.05.03.720p.WEB.h264-LiGATE[TGx] by sotnikam 4 months 712.30 MB1 0
    NASCAR 2019 MECS TicketGuardian 500 Phoenix HDTV x264 720 by HackRF 6 months 3.99 GB5 0
    NASCAR 2019 MECS Talladega GEICO 500 HDTV x264 720 by HackRF 5 months 3.78 GB6 35
    NASCAR 2019 MECS Gander RV 400 Pocono HDTV x264 720 by HackRF 1 month 3.52 GB6 1

    Torrent Hash: FE3C907B787FA8740E3F688814062AAD99F4F5E8


    Num Trackers: 4 trackers




    TRACKER'S LIST COMPATIBLE WITH BITTORRENT CLIENT


    TrackerSeedersLeechersCompletedUpdated
    udp://tracker.leechers-paradise.org:6969 8 14 0 6 months
    http://tracker1.itzmx.com:8080/announce 1 1 0 6 months
    http://explodie.org:6969/announce 1 0 0 6 months
    udp://tracker.coppersurfer.tk:6969 2 2 0 6 months