NASCAR 2020 Cup Series Alsco Uniforms 500 Charlotte HDTV x264 720

seeders: 15     leechers: 4     updated: 4 months ago

Downloading Seeding from 0 peers
of -
0 b/s / 0 b/s
    NASCAR 2020 Cup Series Alsco Uniforms 500 Charlotte HDTV x264 720 ( 3.99 GB )
    Downloaded from.txt0.06 kB
    nascar.txt4.17 kB
    NASCAR 2020 Cup Series Alsco Uniforms 500 HDTV x264 720.mkv3.99 GB

    NASCAR Cup Series 2020

    Alsco Uniforms 500
    Charlotte Motor Speedway
    Wednesday, May 28 8:00 PM ET
    Concord, North Carolina- 208 laps / 310.6 miles










    General
    Complete name                            : NASCAR 2020 Cup Series Alsco Uniforms 500 HDTV x264 720.mkv
    Format                                   : Matroska
    Format version                           : Version 4
    File size                                : 3.99 GiB
    Duration                                 : 2 h 25 min
    Overall bit rate                         : 3 939 kb/s
    Encoded date                             : UTC 2020-05-29 03:43:57
    Writing application                      : mkvmerge v43.0.0 ('The Quartermaster') 64-bit
    Writing library                          : libebml v1.3.10 + libmatroska v1.5.2

    Video
    ID                                       : 1
    Format                                   : AVC
    Format/Info                              : Advanced Video Codec
    Format profile                           : [email protected]
    Format settings                          : CABAC / 5 Ref Frames
    Format settings, CABAC                   : Yes
    Format settings, RefFrames               : 5 frames
    Codec ID                                 : V_MPEG4/ISO/AVC
    Duration                                 : 2 h 25 min
    Bit rate                                 : 3 551 kb/s
    Width                                    : 1 280 pixels
    Height                                   : 720 pixels
    Display aspect ratio                     : 16:9
    Frame rate mode                          : Constant
    Frame rate                               : 59.940 (59940/1000) FPS
    Original frame rate                      : 59.940 (60000/1001) FPS
    Color space                              : YUV
    Chroma subsampling                       : 4:2:0
    Bit depth                                : 8 bits
    Scan type                                : Progressive
    Bits/(Pixel*Frame)                       : 0.064
    Stream size                              : 3.60 GiB (90%)
    Writing library                          : x264 core 152 r2851 ba24899
    Default                                  : Yes
    Forced                                   : No

    Audio
    ID                                       : 2
    Format                                   : AC-3
    Format/Info                              : Audio Coding 3
    Commercial name                          : Dolby Digital
    Codec ID                                 : A_AC3
    Duration                                 : 2 h 25 min
    Bit rate mode                            : Constant
    Bit rate                                 : 384 kb/s
    Channel(s)                               : 6 channels
    Channel layout                           : L R C LFE Ls Rs
    Sampling rate                            : 48.0 kHz
    Frame rate                               : 31.250 FPS (1536 SPF)
    Bit depth                                : 16 bits
    Compression mode                         : Lossy
    Stream size                              : 398 MiB (10%)
    Language                                 : new
    Service kind                             : Complete Main
    Default                                  : Yes
    Forced                                   : No



    SIMILAR

    TORRENT   UPLOADEDSIZESEEDS LEECHS
    NASCAR 2020 Cup Series Daytona 500 HDTV x264 720 by HackRF 7 months 7.62 GB24 1
    NASCAR 2020 Cup Series Talladega GEICO 500 HDTV x264 720 by HackRF 3 months 4.71 GB15 1
    NASCAR 2020 Cup Series Pennzoil 400 Las Vegas HDTV x264 720 by HackRF 7 months 4.06 GB22 1
    NASCAR 2020 Cup Series Toyota 500 Darlington HDTV x264 720 by HackRF 4 months 4.92 GB23 19
    NASCAR 2020 Cup Series The Real Heroes 400 Darlington HDTV x264 720 by HackRF 4 months 5.65 GB10 0
    NASCAR 2020 Cup Series Darlington Cook Out Southern 500 HDTV x264 720 by HackRF 2 weeks 4.84 GB20 2
    NASCAR 2020 Cup Series Bristol Bass Pro Shops 500 HDTV x264 720 by HackRF 6 days 3.84 GB23 41

    Torrent Hash: 6D350737CA52A901F2DD11AE48F50660FB2FBF28


    Num Trackers: 10 trackers




    TRACKER'S LIST COMPATIBLE WITH BITTORRENT CLIENT


    TrackerSeedersLeechersCompletedUpdated
    udp://tracker.coppersurfer.tk:6969/announce 15 1 0 4 months
    udp://retracker.akado-ural.ru:80/announce 2 0 0 4 months
    udp://tracker.gbitt.info:80/announce 15 4 0 4 months
    http://tracker.gbitt.info:80/announce 14 1 0 4 months
    udp://tracker.leechers-paradise.org:6969/announce 12 2 0 4 months
    udp://retracker.lanta-net.ru:2710/announce 6 1 0 4 months
    udp://tracker.internetwarriors.net:1337/announce 5 1 0 4 months
    udp://p4p.arenabg.com:1337/announce 4 0 0 4 months
    udp://cdn-2.gamecoast.org:6969/announce 0 2 0 4 months
    udp://bt1.archive.org:6969/announce 1 1 0 4 months