NASCAR 2020 Cup Series Kentucky Quaker State 400 HDTV x264 720

seeders: 24     leechers: 28     updated: 2 months ago

Downloading Seeding from 0 peers
of -
0 b/s / 0 b/s
    NASCAR 2020 Cup Series Kentucky Quaker State 400 HDTV x264 720 ( 3.36 GB )
    Downloaded from.txt0.06 kB
    nascar.txt4.16 kB
    NASCAR 2020 Cup Series Kentucky Quaker State 400 HDTV x264 720.mkv3.36 GB

    NASCAR Cup Series 2020

    Quaker State 400 Presented by Walmart
    Kentucky Speedway
    Sparta, Kentucky- 267 laps / 400.5 miles
    Sunday, July 12 2:30 PM ET









    General
    Complete name                            : NASCAR 2020 Cup Series Kentucky Quaker State 400 HDTV x264 720.mkv
    Format                                   : Matroska
    Format version                           : Version 4
    File size                                : 3.36 GiB
    Duration                                 : 2 h 34 min
    Overall bit rate                         : 3 113 kb/s
    Encoded date                             : UTC 2020-07-12 23:17:52
    Writing application                      : mkvmerge v43.0.0 ('The Quartermaster') 64-bit
    Writing library                          : libebml v1.3.10 + libmatroska v1.5.2

    Video
    ID                                       : 1
    Format                                   : AVC
    Format/Info                              : Advanced Video Codec
    Format profile                           : [email protected]
    Format settings                          : CABAC / 5 Ref Frames
    Format settings, CABAC                   : Yes
    Format settings, RefFrames               : 5 frames
    Codec ID                                 : V_MPEG4/ISO/AVC
    Duration                                 : 2 h 34 min
    Bit rate                                 : 2 725 kb/s
    Width                                    : 1 280 pixels
    Height                                   : 720 pixels
    Display aspect ratio                     : 16:9
    Frame rate mode                          : Constant
    Frame rate                               : 59.940 (59940/1000) FPS
    Original frame rate                      : 59.940 (60000/1001) FPS
    Color space                              : YUV
    Chroma subsampling                       : 4:2:0
    Bit depth                                : 8 bits
    Scan type                                : Progressive
    Bits/(Pixel*Frame)                       : 0.049
    Stream size                              : 2.94 GiB (88%)
    Writing library                          : x264 core 152 r2851 ba24899
    Default                                  : Yes
    Forced                                   : No

    Audio
    ID                                       : 2
    Format                                   : AC-3
    Format/Info                              : Audio Coding 3
    Commercial name                          : Dolby Digital
    Codec ID                                 : A_AC3
    Duration                                 : 2 h 34 min
    Bit rate mode                            : Constant
    Bit rate                                 : 384 kb/s
    Channel(s)                               : 6 channels
    Channel layout                           : L R C LFE Ls Rs
    Sampling rate                            : 48.0 kHz
    Frame rate                               : 31.250 FPS (1536 SPF)
    Bit depth                                : 16 bits
    Compression mode                         : Lossy
    Stream size                              : 425 MiB (12%)
    Language                                 : new
    Service kind                             : Complete Main
    Default                                  : Yes
    Forced                                   : No



    SIMILAR

    TORRENT   UPLOADEDSIZESEEDS LEECHS
    NASCAR 2020 Cup Series Alsco Uniforms 500 Charlotte HDTV x264 720 by HackRF 4 months 3.99 GB15 4
    NASCAR 2020 Cup Series Daytona 500 HDTV x264 720 by HackRF 7 months 7.62 GB24 1
    NASCAR 2020 Cup Series Pennzoil 400 Las Vegas HDTV x264 720 by HackRF 7 months 4.06 GB22 1
    NASCAR 2020 Cup Series Toyota 500 Darlington HDTV x264 720 by HackRF 4 months 4.92 GB23 19
    NASCAR 2020 Cup Series Talladega GEICO 500 HDTV x264 720 by HackRF 3 months 4.71 GB15 1
    NASCAR 2020 Cup Series Auto Club 400 Fontana HDTV x264 720 by HackRF 7 months 3.37 GB0 0
    NASCAR 2020 Cup Series Bristol All-Star Race HDTV x264 720 by HackRF 2 months 2.47 GB11 3

    Torrent Hash: ECEFABD16512E6837788D352C86088770C395DA1


    Num Trackers: 5 trackers




    TRACKER'S LIST COMPATIBLE WITH BITTORRENT CLIENT


    TrackerSeedersLeechersCompletedUpdated
    http://bt2.archive.org:6969/announce 1 1 0 2 months
    http://open.acgtracker.com:1096/announce 0 0 0 2 months
    http://bt1.archive.org:6969/announce 0 1 0 2 months
    udp://tracker.leechers-paradise.org:6969 12 22 0 2 months
    udp://tracker.coppersurfer.tk:6969 24 28 0 2 months

    No comments yet.